<?xml version="1.0" standalone="no"?>
<!DOCTYPE svg PUBLIC "-//W3C//DTD SVG 1.1//EN" "http://www.w3.org/Graphics/SVG/1.1/DTD/svg11.dtd" >
<svg xmlns="http://www.w3.org/2000/svg" xmlns:xlink="http://www.w3.org/1999/xlink" version="1.1">
<metadata>
Created by FontForge 20160405 at Mon Apr 10 05:30:57 2017
 By www-data
Copyright (c) 1989, 1992, 1996, 1998, 1999 Adobe Systems Incorporated.  All Rights Reserved.Adobe Garamond is a registered trademark of Adobe Systems Incorporated.
</metadata>
<defs>
<font id="AGaramondLT-Semibold" horiz-adv-x="510" >
  <font-face 
    font-family="AGaramond LT"
    font-weight="700"
    font-stretch="normal"
    units-per-em="1000"
    panose-1="2 0 8 3 7 0 0 2 0 3"
    ascent="800"
    descent="-200"
    x-height="397"
    cap-height="663"
    bbox="-177 -269 1123 866"
    underline-thickness="50"
    underline-position="-175"
    unicode-range="U+0020-2122"
  />
<missing-glyph horiz-adv-x="500" 
d="M442 8v496h-384v-496h384zM50 512h400v-512h-400v512z" />
    <glyph glyph-name=".notdef" horiz-adv-x="500" 
d="M442 8v496h-384v-496h384zM50 512h400v-512h-400v512z" />
    <glyph glyph-name=".null" horiz-adv-x="0" 
 />
    <glyph glyph-name="nonmarkingreturn" horiz-adv-x="255" 
 />
    <glyph glyph-name="space" unicode=" " horiz-adv-x="255" 
 />
    <glyph glyph-name="exclam" unicode="!" horiz-adv-x="280" 
d="M155 205q-7 -5 -15.5 -5.5t-14.5 5.5l-42 335q-6 46 -6 66t14 30t49 10t49 -10t14 -30t-6 -66zM140 -14q-29 0 -47 18t-18 46q0 26 18 44t47 18q28 0 46 -18t18 -44q0 -28 -18 -46t-46 -18z" />
    <glyph glyph-name="quotedbl" unicode="&#x22;" horiz-adv-x="438" 
d="M299 700q25 0 38 -5.5t13 -22.5q0 -8 -1 -18t-5 -32l-30 -162q-15 -12 -30 0l-30 162q-4 22 -5 32t-1 18q0 17 13 22.5t38 5.5zM139 700q25 0 38 -5.5t13 -22.5q0 -8 -1 -18t-5 -32l-30 -162q-15 -12 -30 0l-30 162q-4 22 -5 32t-1 18q0 17 13 22.5t38 5.5z" />
    <glyph glyph-name="numbersign" unicode="#" 
d="M133 244l42 158h-107l14 54h108l45 168h52l-45 -168h105l45 168h52l-45 -168h99l-11 -54h-103l-42 -158h96l-13 -54h-98l-50 -187h-51l50 187h-106l-50 -187h-51l50 187h-106l13 54h107zM332 402h-105l-42 -158h105z" />
    <glyph glyph-name="dollar" unicode="$" 
d="M316 627q34 -2 58 -8t52 -11q8 -19 13 -53.5t4 -65.5q-4 -5 -13 -5.5t-14 2.5q-4 12 -11 27t-19.5 29.5t-30.5 26.5t-43 17l-23 -210l15 -6q33 -12 63 -28.5t52.5 -39t36 -52t13.5 -68.5q-1 -81 -59 -129t-160 -52l-10 -93q-2 -3 -7.5 -5t-12.5 -2t-12.5 2t-7.5 5l10 94
q-54 2 -88 16t-48 21q-7 10 -13 25.5t-10.5 33.5t-6.5 37.5t-2 37.5q3 6 12.5 7t14.5 -4q7 -17 18.5 -37.5t29 -39.5t41.5 -34t56 -21l26 240q-33 12 -63 28t-52.5 37.5t-36 49t-13.5 63.5q0 35 13 65t38.5 52t63 35t86.5 14l8 76q3 4 8.5 5.5t11.5 1.5q7 0 12.5 -1.5
t7.5 -5.5zM272 588q-27 -1 -46.5 -9.5t-32 -22t-19 -30.5t-6.5 -35q0 -29 21.5 -54t61.5 -44zM254 41q57 2 85 30.5t28 79.5q0 40 -22.5 68t-66.5 48z" />
    <glyph glyph-name="percent" unicode="%" horiz-adv-x="868" 
d="M244 -40q-12 -1 -21.5 5.5t-13.5 16.5l404 670q9 2 21 -4.5t16 -15.5zM208 606q-24 0 -38 -17.5t-22 -43t-10.5 -53t-2.5 -46.5q0 -20 2.5 -47t10.5 -52.5t22 -43t38 -17.5t38 17.5t22 43t10.5 52.5t2.5 47q0 19 -2.5 46.5t-10.5 53t-22 43t-38 17.5zM208 640
q42 0 72 -18.5t48.5 -47t27.5 -63t9 -65.5t-9 -65.5t-27.5 -63t-48.5 -47t-72 -18.5t-72 18.5t-48.5 47t-27.5 63t-9 65.5t9 65.5t27.5 63t48.5 47t72 18.5zM660 340q-24 0 -38 -17.5t-22 -43t-10.5 -53t-2.5 -46.5q0 -20 2.5 -47t10.5 -52.5t22 -43t38 -17.5t38 17.5t22 43
t10.5 52.5t2.5 47q0 19 -2.5 46.5t-10.5 53t-22 43t-38 17.5zM660 374q42 0 72 -18.5t48.5 -47t27.5 -63t9 -65.5t-9 -65.5t-27.5 -63t-48.5 -47t-72 -18.5t-72 18.5t-48.5 47t-27.5 63t-9 65.5t9 65.5t27.5 63t48.5 47t72 18.5z" />
    <glyph glyph-name="ampersand" unicode="&#x26;" horiz-adv-x="834" 
d="M305 604q-26 0 -45 -21t-19 -56q0 -32 17.5 -56t50.5 -48q5 -3 9.5 -6t6.5 -3t5 2t5 3q14 16 23.5 40t9.5 56q0 39 -17 64t-46 25zM369 252q-18 19 -36.5 35.5t-34.5 28t-27 18t-13 6.5q-4 0 -10.5 -3.5t-12.5 -8.5q-26 -18 -43.5 -52.5t-17.5 -72.5q0 -32 12.5 -58
t33.5 -45t49.5 -29.5t61.5 -10.5t63 12.5t53 33.5q11 10 11.5 17t-8.5 21q-18 29 -38.5 56.5t-42.5 51.5zM309 640q33 0 60 -10.5t46 -28t29 -41t10 -49.5q0 -28 -10 -47.5t-24.5 -33t-30.5 -22.5t-29 -16q29 -19 51.5 -37.5t41.5 -39.5t37 -45.5t38 -55.5q24 32 49 79.5
t47 95.5q13 29 13.5 39t-20.5 14l-29 5q-7 7 -6 16t9 12h55q19 0 44.5 0.5t50 1.5t44.5 2t29 2q5 -3 6.5 -12.5t-4.5 -15.5l-46 -10q-20 -4 -34 -11.5t-26 -19.5t-23 -28.5t-24 -38.5q-18 -30 -44.5 -69.5t-59.5 -87.5q-8 -13 2 -29q32 -50 68.5 -78.5t90.5 -28.5q21 0 43 8
t38 19q8 -1 12 -7t2 -14q-18 -20 -40 -33.5t-45 -22t-45 -12.5t-41 -4q-35 0 -69 9t-48 23q-11 11 -24.5 30.5t-23.5 35.5q-50 -51 -99.5 -74.5t-107.5 -23.5q-54 0 -92 16.5t-62 43t-35.5 58t-12.5 61.5q1 39 14.5 70t35 55.5t48.5 43t55 33.5q-6 5 -17.5 15t-23 25
t-20.5 36t-9 47q0 34 12.5 61.5t34 47t50 30.5t59.5 11z" />
    <glyph glyph-name="quotesingle" unicode="'" horiz-adv-x="248" 
d="M124 700q25 0 38 -5.5t13 -22.5q0 -8 -1 -18t-5 -32l-30 -162q-15 -12 -30 0l-30 162q-4 22 -5 32t-1 18q0 17 13 22.5t38 5.5z" />
    <glyph glyph-name="parenleft" unicode="(" horiz-adv-x="320" 
d="M149 270q0 -52 8 -110t25 -114t45 -106t68 -86q1 -6 -4 -12t-11 -5q-53 33 -92 82t-64.5 107t-38 121t-12.5 123t12.5 123t38 121t64.5 107t92 82q6 1 11 -5t4 -12q-40 -36 -68 -86t-45 -106t-25 -114t-8 -110z" />
    <glyph glyph-name="parenright" unicode=")" horiz-adv-x="320" 
d="M171 270q0 52 -8 110t-25 114t-45 106t-68 86q-1 6 4 12t11 5q53 -33 92 -82t64.5 -107t38 -121t12.5 -123t-12.5 -123t-38 -121t-64.5 -107t-92 -82q-6 -1 -11 5t-4 12q40 36 68 86t45 106t25 114t8 110z" />
    <glyph glyph-name="asterisk" unicode="*" horiz-adv-x="420" 
d="M236 545l124 60q7 -1 11 -9t1 -16l-113 -80l112 -78q3 -7 -1 -16t-13 -11l-121 63l-12 -127q-5 -4 -14 -4t-14 4l-12 127l-121 -63q-9 2 -13 11t-1 16l112 78l-113 80q-3 8 1 16t11 9l124 -60l12 127q5 4 14 4t14 -4z" />
    <glyph glyph-name="plus" unicode="+" 
d="M218 0v174h-155v63h155v157h75v-157h155v-63h-155v-174h-75z" />
    <glyph glyph-name="comma" unicode="," horiz-adv-x="255" 
d="M204 36q0 -33 -11.5 -59t-31 -45.5t-44.5 -33.5t-53 -22q-11 4 -13.5 12t2.5 18q13 4 28 11t28 17.5t21.5 25.5t8.5 35q0 16 -7.5 27t-17.5 17.5t-19.5 10t-13.5 5.5q-23 11 -23 37q0 22 16.5 37.5t45.5 15.5q14 0 29 -6.5t27 -20t20 -34t8 -48.5z" />
    <glyph glyph-name="hyphenminus" unicode="-" horiz-adv-x="320" 
d="M279 250q5 -5 7 -14t2 -19q0 -20 -9 -32l-238 -22q-5 5 -7 14.5t-2 17.5q0 18 9 33z" />
    <glyph glyph-name="period" unicode="." horiz-adv-x="255" 
d="M128 -14q-29 0 -47.5 19t-18.5 47t18.5 47t47.5 19q28 0 46.5 -19t18.5 -47t-18.5 -47t-46.5 -19z" />
    <glyph glyph-name="slash" unicode="/" horiz-adv-x="347" 
d="M108 -16h-78l209 692h78z" />
    <glyph glyph-name="zero" unicode="0" 
d="M255 600q-33 0 -52 -31.5t-29 -76.5t-13 -94.5t-3 -84.5t3 -84.5t13 -94.5t29 -76.5t52 -31.5t52 31.5t29 76.5t13 94.5t3 84.5t-3 84.5t-13 94.5t-29 76.5t-52 31.5zM255 640q58 0 98.5 -30t66.5 -77t38 -105t12 -115q0 -59 -12 -117.5t-38 -105t-66.5 -75.5t-98.5 -29
t-98.5 29t-66.5 75.5t-38 105t-12 117.5q0 57 12 115t38 105t66.5 77t98.5 30z" />
    <glyph glyph-name="one" unicode="1" 
d="M317 136q0 -36 1.5 -56t8 -30t19 -13.5t35.5 -6.5l27 -4q5 -5 5 -16t-7 -13q-71 3 -138 3q-38 0 -73.5 -0.5t-71.5 -2.5q-7 2 -7 13t5 16l27 4q22 3 35 6.5t19.5 13.5t8 30t1.5 56v317q0 25 -1 42t-6 28.5t-14.5 17t-26.5 7.5l-48 5q-5 4 -5 12q0 9 4 12q63 12 113 29
t81 34q10 -2 11 -9q-1 -8 -1.5 -22t-1 -31t-0.5 -35v-33v-374z" />
    <glyph glyph-name="two" unicode="2" 
d="M333 86q27 0 45 2t30.5 9t22.5 19t22 33q5 3 13.5 1.5t11.5 -7.5q-11 -56 -24.5 -93.5t-24.5 -52.5q-14 1 -29 1.5t-31 0.5q-16 1 -33 1h-33h-165q-42 0 -68 -0.5t-42 -2.5q-10 7 -6 18q20 18 37.5 33.5t35 32t36 35t41.5 42.5q28 29 54.5 62t46.5 68t32 73t12 77
q0 60 -32 99t-87 39q-43 0 -71.5 -24.5t-51.5 -63.5q-9 -2 -16.5 2t-9.5 13q28 66 83.5 101.5t125.5 35.5q40 0 72.5 -12.5t55 -35t34.5 -53t12 -65.5q0 -24 -6 -48.5t-19.5 -51.5t-36 -57t-56.5 -66l-82 -86q-32 -34 -39.5 -47t-7.5 -18q0 -6 5.5 -10t25.5 -4h117z" />
    <glyph glyph-name="three" unicode="3" 
d="M256 640q69 0 109 -32.5t40 -80.5q0 -15 -4 -30.5t-15.5 -31.5t-32.5 -32t-55 -33q-5 -5 -2 -9.5t14 -5.5q28 -3 54.5 -14t46.5 -30.5t32 -47.5t12 -65q0 -60 -29.5 -112t-76 -90.5t-104 -60t-113.5 -21.5q-18 0 -35.5 4t-31.5 12t-23 20t-9 29q0 20 13.5 33.5t33.5 13.5
q10 0 19 -4.5t16 -10.5t12 -12t8 -10q14 -17 26 -24.5t29 -7.5q18 0 43.5 13t49 37.5t40 60t16.5 81.5q0 31 -8 59t-23.5 48.5t-39.5 32.5t-56 12q-29 0 -54.5 -12.5t-42.5 -28.5q-12 2 -19.5 15t-2.5 26q24 11 58 24.5t65 33t53 46.5t22 65q0 42 -23 63.5t-55 21.5
q-37 0 -67 -22t-56 -61q-8 -4 -14 1.5t-8 14.5q25 56 76 89t112 33z" />
    <glyph glyph-name="four" unicode="4" 
d="M411 189q-18 0 -21.5 -4t-3.5 -21v-45q0 -27 1 -43.5t5 -26.5t11.5 -14.5t20.5 -5.5l25 -3q5 -4 4.5 -15t-6.5 -14q-34 2 -61 2.5t-55 0.5q-40 0 -71 -0.5t-63 -2.5q-6 3 -6.5 13.5t4.5 15.5l48 6q13 2 20.5 6t11.5 13.5t5 25.5t1 42v42q0 21 -3.5 24.5t-20.5 3.5h-229
q-8 2 -12.5 11t-2.5 17l333 476q9 12 22 13h27q11 0 15.5 -4.5t-3.5 -14.5l-311 -431q-9 -13 0 -17.5t32 -4.5h125q20 0 24 3.5t4 23.5v165q0 11 2 16.5t10 10.5q4 2 14.5 6.5t22.5 8.5t23.5 7t17.5 3q11 0 13 -8t2 -23v-189q0 -17 3 -20.5t22 -3.5h62q8 -6 8 -23
q0 -16 -8 -22h-62z" />
    <glyph glyph-name="five" unicode="5" 
d="M412 654q9 -2 9 -9q-5 -20 -14.5 -42.5t-24.5 -39.5l-207 -27q-21 -3 -26.5 -7.5t-9.5 -20.5l-10 -36q-2 -8 2 -12.5t18 -6.5l70 -12q30 -5 68.5 -17t73 -36t58.5 -62.5t24 -97.5q0 -67 -36 -121t-91 -92t-121.5 -59.5t-126.5 -23.5q-9 5 -11.5 15.5t4.5 18.5
q53 6 104 23t91 44.5t64.5 67t24.5 91.5q0 53 -24.5 86.5t-62 52.5t-82.5 26.5t-87 9.5q-16 0 -19 5.5t2 25.5l54 195q3 12 8.5 18.5t17.5 8.5z" />
    <glyph glyph-name="six" unicode="6" 
d="M481 197q-2 -47 -18.5 -86t-45 -67t-67.5 -43t-85 -15q-56 0 -98 19.5t-70.5 54t-43 81t-14.5 100.5q0 31 5.5 69t20.5 78.5t41 82.5t66 81q38 37 80.5 62.5t84 42t78.5 25t64 11.5q5 -3 6.5 -12t-2.5 -15q-24 -8 -52 -19t-56.5 -25.5t-56.5 -34.5t-52 -46
q-29 -31 -48.5 -67t-32 -73.5t-18.5 -74.5t-7 -70q-1 -47 6 -88.5t22 -73t37 -50t52 -18.5q25 0 43 10.5t29 28.5t16.5 41t5.5 47q0 36 -7.5 69t-22.5 58t-36.5 40t-48.5 15q-11 0 -18 -1.5t-15 -4.5q-5 2 -7 8t0 12q23 20 51 29t55 9q36 0 65.5 -14t50.5 -39t32.5 -60
t10.5 -77z" />
    <glyph glyph-name="seven" unicode="7" 
d="M356 626h42t39.5 0.5t31.5 1t18 1.5q7 -4 7 -12q-18 -29 -42 -70t-56 -103l-260 -506q-13 -2 -27.5 4t-15.5 19l256 486q15 29 24 53t9 30q0 10 -23 10h-203q-37 0 -62.5 -7.5t-41.5 -38.5q-5 -4 -14 -2.5t-11 9.5q11 35 19 67t15 61q15 -2 40 -2.5t66 -0.5h189z" />
    <glyph glyph-name="eight" unicode="8" 
d="M257 600q-23 0 -40 -8.5t-28.5 -22.5t-17.5 -32.5t-6 -38.5q0 -26 12.5 -46t32 -35.5t42.5 -28t44 -22.5q28 23 42.5 52.5t14.5 70.5q0 21 -6.5 41t-18.5 35.5t-30 25t-41 9.5zM256 26q41 0 70 26.5t29 71.5q0 59 -38.5 98t-101.5 70q-35 -28 -52.5 -61t-18.5 -80
q1 -57 32 -91t80 -34zM264 640q37 0 69.5 -10t56.5 -29t38 -47t14 -65q0 -31 -11 -53.5t-27.5 -39.5t-36 -29.5t-36.5 -21.5q23 -13 46.5 -30t42 -40.5t30.5 -53t12 -66.5q0 -42 -17.5 -73.5t-47 -53t-67.5 -32t-79 -10.5q-37 0 -73 8.5t-65 27t-47 48.5t-18 73
q0 31 10.5 57t28.5 46.5t42 36.5t51 27q-20 10 -40 25.5t-36.5 35t-27 43.5t-10.5 52q0 39 15 71t41 55t62.5 35.5t79.5 12.5z" />
    <glyph glyph-name="nine" unicode="9" 
d="M40 437q2 47 19.5 84.5t46 64t65.5 40.5t77 14q54 0 94.5 -22t68.5 -56q27 -35 40.5 -82.5t11.5 -109.5q-1 -39 -9.5 -80.5t-27.5 -83t-49 -81.5t-74 -75q-30 -24 -62.5 -42.5t-64.5 -32t-62 -22.5t-54 -13q-7 3 -9.5 13.5t2.5 16.5q45 14 80.5 33.5t61.5 39.5
q30 23 56 54t45.5 72.5t31.5 95t14 122.5q1 43 -4.5 81.5t-18.5 68t-32.5 46.5t-47.5 17q-33 0 -60 -31.5t-29 -94.5q-1 -30 6 -60t20.5 -54t32.5 -39t42 -15q12 0 19.5 1t13.5 3q6 -2 8 -9t0 -14q-39 -27 -95 -27q-32 0 -60.5 12t-50.5 34.5t-34.5 55.5t-11.5 75z" />
    <glyph glyph-name="colon" unicode=":" horiz-adv-x="255" 
d="M128 -14q-29 0 -47.5 19t-18.5 47t18.5 47t47.5 19q28 0 46.5 -19t18.5 -47t-18.5 -47t-46.5 -19zM128 394q28 0 46.5 -19t18.5 -47t-18.5 -47t-46.5 -19q-29 0 -47.5 19t-18.5 47t18.5 47t47.5 19z" />
    <glyph glyph-name="semicolon" unicode=";" horiz-adv-x="255" 
d="M128 394q28 0 46.5 -19t18.5 -47t-18.5 -47t-46.5 -19q-29 0 -47.5 19t-18.5 47t18.5 47t47.5 19zM204 36q0 -33 -11.5 -59t-31 -45.5t-44.5 -33.5t-53 -22q-11 4 -13.5 12t2.5 18q13 4 28 11t28 17.5t21.5 25.5t8.5 35q0 16 -7.5 27t-17.5 17.5t-19.5 10t-13.5 5.5
q-23 11 -23 37q0 22 16.5 37.5t45.5 15.5q14 0 29 -6.5t27 -20t20 -34t8 -48.5z" />
    <glyph glyph-name="less" unicode="&#x3c;" 
d="M450 414v-75l-297 -131v-2l297 -132v-74l-389 184v45z" />
    <glyph glyph-name="equal" unicode="=" 
d="M448 99h-385v63h385v-63zM448 249h-385v63h385v-63z" />
    <glyph glyph-name="greater" unicode="&#x3e;" 
d="M450 229v-45l-389 -184v74l297 132v2l-297 131v75z" />
    <glyph glyph-name="question" unicode="?" horiz-adv-x="330" 
d="M127 -14q-29 0 -47.5 19t-18.5 47t18.5 47t47.5 19q28 0 46.5 -19t18.5 -47t-18.5 -47t-46.5 -19zM101 646q39 0 73 -20t59 -51t39 -67.5t14 -70.5q0 -41 -17.5 -67t-46.5 -40l-54 -26q-26 -13 -36.5 -24.5t-10.5 -25.5q0 -12 2 -24t7 -26q-4 -7 -12.5 -9t-15.5 3
q-6 9 -13.5 21.5t-14 27.5t-11 30.5t-4.5 30.5q0 17 6 30t16 23t22.5 17.5t24.5 13.5l56 25q33 15 41 31.5t8 26.5q0 21 -10.5 34.5t-29.5 21.5t-44.5 11t-56.5 3q-5 0 -13 3t-15.5 9t-13 15.5t-5.5 23.5q0 22 15 36t41 14z" />
    <glyph glyph-name="at" unicode="@" horiz-adv-x="781" 
d="M299 238q0 -14 6 -14q5 0 24.5 8.5t55.5 40.5q18 16 37 39.5t35.5 47t28.5 44t16 32.5q-4 11 -14.5 19t-26.5 8q-15 0 -28.5 -6t-31.5 -22q-20 -18 -38.5 -44t-32.5 -53.5t-22.5 -54t-8.5 -45.5zM448 637q-72 0 -129.5 -29t-98 -77t-62.5 -110.5t-22 -129.5
q0 -44 13 -91.5t45 -87.5t86 -66t137 -26q57 0 95.5 11.5t62.5 21.5q6 -3 8.5 -10t0.5 -12q-45 -25 -98 -35.5t-97 -10.5q-64 0 -124.5 19t-108 57.5t-76 97t-28.5 138.5q0 87 33 157.5t88 119.5t126.5 75.5t148.5 26.5q71 0 126 -22t92 -59.5t56 -86.5t19 -102
q0 -49 -17.5 -91t-50 -73t-79 -48.5t-104.5 -17.5q-25 0 -39.5 3t-22 7.5t-9.5 9.5t-2 8q0 4 1.5 13t5.5 20l24 54l-2 1q-23 -23 -49.5 -44t-52.5 -37t-49 -25.5t-39 -9.5q-23 0 -33.5 13.5t-10.5 30.5q0 7 3.5 22t12.5 35.5t24 45.5t37 52q18 22 40 44t47.5 40t54.5 29.5
t60 11.5q11 0 21.5 -5.5t14.5 -16.5l24 51q14 5 29.5 0.5t26.5 -12.5q-3 -7 -11.5 -27.5t-20 -47.5t-24.5 -57.5t-25 -58.5t-21 -49.5t-13 -30.5q-7 -18 -3.5 -25t19.5 -9q34 -3 67 9.5t59.5 38t43 62t16.5 80.5q0 55 -19 98.5t-52.5 74t-78.5 46.5t-96 16z" />
    <glyph glyph-name="A" unicode="A" horiz-adv-x="627" 
d="M328 290q21 0 25.5 4t-1.5 22l-42 120q-13 40 -18.5 57t-9.5 22h-2q-3 -5 -9.5 -24.5t-20.5 -54.5l-42 -117q-8 -22 -5 -25.5t21 -3.5h104zM208 245q-10 0 -15 -0.5t-8 -3t-5.5 -8t-5.5 -15.5l-41 -120q-8 -22 -10.5 -34.5t-0.5 -19t10 -9t22 -4.5l29 -5q5 -5 4.5 -15.5
t-6.5 -13.5q-24 2 -50 2q-25 0 -56 1q-47 0 -99 -3q-5 4 -5.5 13t4.5 16l30 5q22 3 33 12t22 34q9 20 21 50.5t28 71.5l137 356q10 24 15.5 42t3.5 31q13 3 25.5 10.5t22 16t15.5 15t7 6.5q11 0 17 -8q12 -34 22.5 -68.5t22.5 -68.5l144 -419q9 -25 15 -40t14 -23.5
t19.5 -12.5t30.5 -7l15 -3q6 -5 6 -15t-5 -14q-31 2 -61 2.5t-69 0.5q-32 0 -64 -1t-58 -2q-6 4 -7 14t4 15l22 3q27 3 31.5 12t-5.5 41l-47 136q-4 10 -7 15.5t-7 8t-10.5 3t-16.5 0.5h-133z" />
    <glyph glyph-name="B" unicode="B" horiz-adv-x="627" 
d="M235 400q0 -10 1 -15.5t5.5 -8t13 -3t23.5 -0.5q71 0 104 29.5t33 97.5q0 33 -11 56.5t-29 38t-41 21.5t-46 7q-19 0 -29.5 -1t-16 -5t-6.5 -12.5t-1 -23.5v-181zM235 165q0 -34 3 -58.5t13 -40t29 -22.5t52 -7q26 0 49.5 8.5t41.5 25t28.5 42t10.5 58.5q0 78 -48.5 121
t-132.5 43q-33 0 -39.5 -5.5t-6.5 -20.5v-144zM119 510q0 36 -1 57.5t-5.5 33t-14 16t-27.5 6.5l-26 3q-5 5 -5 14q0 10 6 14q34 3 89.5 6t138.5 3q63 0 112.5 -7t83.5 -27q35 -20 52.5 -51t17.5 -79q0 -45 -30 -77.5t-83 -49.5q-6 -2 -6 -6q0 -3 8 -6q28 -5 57 -16.5
t52 -32.5t37.5 -52t14.5 -73q0 -35 -13 -70t-48 -63q-35 -29 -88 -42.5t-139 -13.5q-33 0 -64 1.5t-60 1.5q-33 0 -67.5 -0.5t-67.5 -2.5q-6 3 -6.5 13.5t4.5 15.5l22 3q18 2 29 5.5t17 14.5t8 33t2 62v366z" />
    <glyph glyph-name="C" unicode="C" horiz-adv-x="694" 
d="M645 648q2 -17 4 -58.5t10 -97.5q-5 -6 -16 -6.5t-16 4.5q-6 24 -18.5 49.5t-35 47t-57 35.5t-83.5 14q-48 0 -93.5 -17.5t-81.5 -53.5t-58 -91.5t-22 -132.5q0 -80 23 -139.5t60 -99t84 -59t95 -19.5q47 0 81.5 14t59.5 36t41 48.5t27 50.5q7 7 16.5 5t13.5 -9
q-3 -25 -8.5 -49.5t-12.5 -44.5t-14.5 -35.5t-12.5 -22.5q-9 -2 -18 -4.5t-17 -4.5q-8 -3 -24.5 -7t-37.5 -7.5t-45.5 -6.5t-48.5 -3q-75 0 -138.5 16t-117.5 51q-61 40 -101.5 108.5t-40.5 166.5q0 88 35 155t91 110q56 42 128 63.5t148 21.5q43 0 90.5 -6.5t82.5 -15.5
q9 -2 15 -3t13 -3z" />
    <glyph glyph-name="D" unicode="D" horiz-adv-x="784" 
d="M235 183q0 -36 2.5 -64t14 -47t34 -28.5t62.5 -9.5q67 0 115.5 22.5t80 62t47 93.5t15.5 117q0 74 -20.5 129.5t-58 92t-89 54.5t-114.5 18q-32 0 -54 -4.5t-27 -9.5t-6.5 -22t-1.5 -52v-352zM119 510q0 36 -1 57.5t-5.5 33.5t-14 16.5t-27.5 6.5l-21 2q-5 4 -5 14t6 14
q54 5 115 7t135 2q71 0 126 -7.5t110 -26.5q45 -17 82.5 -44.5t65 -65.5t42.5 -85.5t15 -103.5q0 -42 -10.5 -83t-32.5 -79t-56 -70t-80 -56q-54 -27 -116.5 -37.5t-131.5 -10.5q-23 0 -43 1t-38 2q-36 3 -64 3q-29 0 -61.5 -0.5t-65.5 -2.5q-6 3 -6.5 13.5t4.5 15.5l22 3
q18 2 29 5.5t17 14.5t8 33t2 62v366z" />
    <glyph glyph-name="E" unicode="E" horiz-adv-x="580" 
d="M119 516q0 40 -2 62t-8 33t-17 14.5t-29 6.5l-16 2q-5 5 -4.5 15.5t6.5 13.5q14 -1 29.5 -1.5t32.5 -0.5q17 -1 33 -1h34h191q48 0 86.5 0.5t48.5 2.5q1 -6 3 -22.5t4 -37t4.5 -42t4.5 -37.5q-3 -6 -14.5 -7.5t-17.5 3.5q-12 44 -25.5 64.5t-37.5 26.5q-17 5 -38.5 7
t-41.5 2h-67q-16 0 -25 -1t-13 -7t-4.5 -18t-0.5 -33v-169q0 -20 3.5 -23.5t20.5 -3.5h48q33 0 53 1t32 5t17.5 13t8.5 25l7 34q6 5 17 5t15 -6q-1 -20 -2 -46t-1 -54q0 -29 1 -55t2 -50q-4 -5 -15 -5.5t-17 4.5l-7 40q-3 16 -8.5 24.5t-17.5 13t-32 5.5t-53 1h-48
q-17 0 -20.5 -4t-3.5 -23v-127q0 -38 3 -64.5t14 -39.5q4 -5 10.5 -9t19 -7t32 -4.5t51.5 -1.5q48 -1 77.5 4.5t49 18.5t32 34t25.5 51q7 5 17 3.5t15 -9.5q-2 -16 -7 -36.5t-11 -41.5t-12.5 -39t-11.5 -28q-17 1 -40.5 1.5t-55.5 0.5q-32 1 -69 1h-82h-114
q-33 0 -74.5 -0.5t-75.5 -2.5q-6 3 -6.5 13.5t4.5 15.5l37 4q18 2 29 5t17 14t8 33t2 62v372z" />
    <glyph glyph-name="F" unicode="F" horiz-adv-x="533" 
d="M365 660q48 0 86.5 0.5t54.5 2.5v-25v-38q0 -20 0.5 -41.5t1.5 -39.5q-3 -6 -13.5 -7.5t-18.5 3.5q-8 44 -21.5 66.5t-42.5 30.5q-20 5 -40 6.5t-44 1.5h-51q-16 0 -24.5 -1t-12.5 -7t-4.5 -17.5t-0.5 -32.5v-179q0 -19 3.5 -23t20.5 -4h59q33 0 53 1t32 5.5t18 13
t9 24.5l8 34q5 5 15 5q11 0 15 -6q-1 -20 -2 -46t-1 -54t1 -54.5t2 -49.5q-4 -6 -15 -6q-10 0 -15 5l-8 39q-3 16 -9 24.5t-18 13t-32 5.5t-53 1h-59q-17 0 -20.5 -4t-3.5 -23v-140q0 -40 2 -62t8 -33t17 -14t29 -4l42 -5q5 -5 4.5 -15.5t-6.5 -13.5q-48 2 -84 2.5t-69 0.5
q-66 0 -135 -3q-6 3 -6.5 13.5t4.5 15.5l22 3q18 2 29 5.5t17 14.5t8 33t2 62v372q0 40 -2 62t-8 33t-17 14.5t-29 6.5l-13 2q-5 5 -4.5 15.5t6.5 13.5q26 -2 58.5 -2.5t65.5 -0.5h189z" />
    <glyph glyph-name="G" unicode="G" horiz-adv-x="743" 
d="M657 104q0 -26 5 -44.5t19 -25.5q2 -3 2 -8t-3 -7q-18 0 -48 -8q-47 -11 -99 -19t-95 -8q-91 0 -171 25.5t-137 84.5q-45 46 -66.5 106t-21.5 123t22 124.5t70 110.5q54 57 134 87.5t185 30.5q35 0 71 -5t62 -10q17 -4 36 -6.5t28 -2.5q1 -23 5 -61.5t8 -97.5
q-4 -8 -16 -8.5t-16 6.5q-17 73 -67 109t-125 36q-66 0 -115 -22.5t-81.5 -62.5t-48.5 -94t-16 -118q0 -60 15.5 -121t56.5 -109q20 -24 44.5 -40.5t50 -26t51 -14t47.5 -4.5q71 0 89 23q5 7 7 21.5t2 41.5v36q0 27 -1 42.5t-7.5 24t-20.5 13t-39 8.5l-36 6q-5 5 -5 15t6 14
q29 -2 66.5 -2.5t89.5 -0.5q34 0 62 0.5t60 2.5q8 -4 8.5 -14t-6.5 -15l-18 -3q-14 -2 -22.5 -5.5t-13 -11t-6 -21.5t-1.5 -37v-58z" />
    <glyph glyph-name="H" unicode="H" horiz-adv-x="812" 
d="M289 320q-19 0 -30 -0.5t-16 -3.5t-6.5 -9t-1.5 -16v-147q0 -40 2 -62t8 -33t17 -14t29 -5l30 -4q5 -5 4.5 -15.5t-6.5 -13.5q-39 2 -73.5 2.5t-67.5 0.5t-65.5 -0.5t-61.5 -2.5q-6 3 -6.5 13.5t4.5 15.5l14 2q18 3 29 6.5t17 14.5t8 33t2 62v372q0 40 -2 62t-8 33
t-17 14.5t-29 5.5l-22 3q-5 4 -4.5 15t6.5 14q33 -2 67.5 -2.5t67.5 -0.5t66 0.5t62 2.5q6 -3 6.5 -14t-4.5 -15l-17 -3q-18 -2 -29 -5.5t-17 -14.5t-8 -33t-2 -62v-121q0 -11 1.5 -17t6.5 -9t16 -3.5t30 -0.5h234q19 0 30 0.5t16 3.5t6.5 9t1.5 17v121q0 40 -2 62t-8 33
t-17 14.5t-29 5.5l-22 3q-5 4 -4.5 15t6.5 14q69 -3 135 -3q33 0 66 0.5t63 2.5q6 -3 6.5 -14t-4.5 -15l-18 -3q-18 -2 -29 -5.5t-17 -14.5t-8 -33t-2 -62v-372q0 -40 2 -62t8 -33t17 -14.5t29 -5.5l22 -3q5 -5 4.5 -15.5t-6.5 -13.5q-66 3 -133 3q-69 0 -135 -3
q-6 3 -6.5 13.5t4.5 15.5l22 3q18 2 29 5.5t17 14.5t8 33t2 62v147q0 10 -1.5 16t-6.5 9t-16 3.5t-30 0.5h-234z" />
    <glyph glyph-name="I" unicode="I" horiz-adv-x="354" 
d="M235 144q0 -40 2 -62t8 -33t17 -14.5t29 -5.5l22 -3q5 -5 4.5 -15.5t-6.5 -13.5q-66 3 -133 3q-33 0 -67.5 -0.5t-67.5 -2.5q-6 3 -6.5 13.5t4.5 15.5l22 3q18 2 29 5.5t17 14.5t8 33t2 62v372q0 40 -2 62t-8 33t-17 14.5t-29 5.5l-22 3q-5 5 -4.5 15.5t6.5 13.5
q66 -3 135 -3q67 0 133 3q6 -3 6.5 -13.5t-4.5 -15.5l-22 -3q-18 -2 -29 -5.5t-17 -14.5t-8 -33t-2 -62v-372z" />
    <glyph glyph-name="J" unicode="J" horiz-adv-x="354" 
d="M251 137q0 -60 -4 -109.5t-18 -83.5q-12 -30 -31.5 -56t-47 -46t-62.5 -31.5t-78 -11.5q-18 0 -35.5 6.5t-17.5 26.5q0 7 3 17.5t9 20t14.5 16t19.5 6.5t22 -5.5t23 -13.5q19 -12 27.5 -15t15.5 -3q9 0 15.5 9.5t10.5 22t6 26t3 21.5q2 13 5.5 64.5t3.5 131.5v384
q0 40 -2 62.5t-8.5 33.5t-17.5 14.5t-29 5.5l-29 4q-5 4 -4.5 15t6.5 14q39 -2 73.5 -2.5t68.5 -0.5q68 0 124 3q6 -3 6.5 -14t-4.5 -15l-14 -2q-17 -3 -27.5 -7t-16.5 -15t-8 -33.5t-2 -62.5v-377z" />
    <glyph glyph-name="K" unicode="K" horiz-adv-x="684" 
d="M235 405q0 -20 2.5 -32.5t14.5 -12.5q14 0 32 16t43 43l102 110q5 5 12.5 13t15 17t14.5 17.5t12 14.5q14 17 15 24.5t-8 9.5l-31 9q-6 5 -5 14t7 15q32 -2 58 -2.5t54 -0.5q32 0 57.5 1t52.5 2q8 -2 9.5 -13.5t-6.5 -15.5q-35 -5 -59 -12.5t-44.5 -19.5t-40 -29.5
t-45.5 -42.5q-32 -32 -62.5 -63t-59.5 -60q-9 -9 -10 -15.5t7 -17.5q30 -39 62 -80t64 -81t62.5 -77.5t57.5 -68.5q16 -19 33.5 -27t40.5 -11l24 -3q5 -4 4.5 -15.5t-6.5 -13.5q-26 2 -57 2.5t-71 0.5q-72 0 -138 -3q-8 3 -8.5 14t6.5 15l27 4q25 5 7 27q-11 13 -27 34
t-35 46t-39 51.5t-38.5 50t-34 42t-24.5 28.5q-5 5 -11 10t-13 5q-19 0 -21 -15.5t-2 -37.5v-127q0 -40 2 -62t8 -33t17 -14.5t29 -5.5l25 -3q5 -4 4.5 -15t-6.5 -14q-71 3 -136 3q-33 0 -66.5 -0.5t-60.5 -2.5q-6 3 -6.5 14t4.5 15l14 2q18 3 29 6.5t17 14.5t8 33t2 62v372
q0 40 -2 62t-8 33t-17 14.5t-29 5.5l-19 3q-5 5 -4.5 15.5t6.5 13.5q61 -3 132 -3q33 0 66 0.5t62 2.5q6 -3 6.5 -14t-4.5 -15l-17 -3q-18 -2 -29 -5.5t-17 -14.5t-8 -33t-2 -62v-111z" />
    <glyph glyph-name="L" unicode="L" horiz-adv-x="560" 
d="M235 165q0 -38 3 -64t14 -39q4 -5 10.5 -9t18 -7t30.5 -4.5t49 -1.5q42 0 67.5 2.5t43.5 13t31.5 32t30.5 60.5q8 4 17.5 2t13.5 -8q-3 -16 -8.5 -36.5t-11.5 -41.5t-12 -39t-10 -28q-16 1 -39.5 1.5t-54.5 0.5q-30 1 -67 1h-79h-104q-38 0 -74.5 -0.5t-68.5 -2.5
q-6 3 -7.5 14t5.5 15l30 5q18 2 29 5.5t17 14.5t8 32.5t2 60.5v372q0 39 -2 60.5t-8 32.5t-17 14.5t-29 6.5l-28 4q-5 4 -5 15t7 14q38 -2 72 -2.5t69 -0.5q67 0 133 3q7 -3 7.5 -14t-5.5 -15l-22 -4q-18 -3 -29 -6.5t-17 -14.5t-8 -32.5t-2 -60.5v-351z" />
    <glyph glyph-name="M" unicode="M" horiz-adv-x="921" 
d="M876 26q8 -3 7 -14.5t-9 -14.5q-32 2 -62 2.5t-60 0.5q-68 0 -134 -3q-6 3 -8 13.5t6 15.5l27 5q15 2 23.5 5.5t13 12t5.5 23.5t1 41v409h-2q-20 -41 -33 -68t-27 -57l-86 -176q-13 -26 -28 -58.5t-29 -64t-26 -59.5t-19 -46q-3 -3 -12 -3t-14 3q-6 20 -16.5 47
t-22.5 55.5t-23.5 54.5t-20.5 45l-89 192q-7 16 -15.5 34.5t-16.5 37.5t-15 35.5t-11 27.5h-2q-1 -18 -1.5 -41t-1.5 -46t-1.5 -44.5t-1.5 -37.5q-2 -46 -3 -108t-1 -124q0 -25 1 -41t5 -25.5t13 -14.5t25 -8l33 -6q5 -5 5 -16q0 -10 -6 -13q-28 2 -52.5 2.5t-52.5 0.5
q-49 0 -107 -3q-7 4 -7.5 14.5t4.5 14.5l17 2q18 2 29 6.5t17.5 13.5t10 24t5.5 38q6 47 8.5 100.5t6.5 131.5q3 51 6.5 108.5t3.5 103.5q0 35 -12.5 52t-41.5 22l-34 6q-5 5 -4 16t8 13q23 -2 44.5 -2.5t49.5 -0.5q26 0 52.5 0.5t54.5 2.5q3 -45 19.5 -85t35.5 -81
l110 -231l9 -18l12.5 -25t13.5 -25.5t12 -21.5q12 22 23.5 45.5t28.5 58.5l94 192q24 50 46 95.5t35 95.5q20 -2 42.5 -2.5t39.5 -0.5q63 0 105 3q8 -3 9.5 -13.5t-6.5 -15.5l-33 -5q-33 -5 -43.5 -20.5t-10.5 -55.5q0 -112 2 -222t7 -222q1 -25 4 -40t8 -23t13.5 -11
t20.5 -4z" />
    <glyph glyph-name="N" unicode="N" horiz-adv-x="780" 
d="M669 170v-37t0.5 -54t1 -52t1.5 -33q-6 -8 -15.5 -11.5t-18.5 -2.5q-6 8 -15 19t-22.5 27t-33 38t-46.5 53l-234 267q-49 55 -75 85t-39 41q-2 0 -2.5 -12t-0.5 -52v-195q0 -28 0.5 -58t2 -57t5.5 -49t10 -33q7 -11 19.5 -16.5t31.5 -8.5l22 -3q7 -5 6.5 -16t-8.5 -13
q-56 3 -114 3q-32 0 -55 -0.5t-49 -2.5q-6 4 -7 14t5 15l22 5q14 2 26.5 6.5t17.5 16.5t7.5 33t4 47.5t1.5 56.5v60v237q0 29 -0.5 48t-3.5 32t-9.5 22.5t-19.5 20.5q-8 7 -25 12.5t-28 7.5l-15 3q-5 5 -4.5 16t8.5 13q14 -2 31 -2.5t33 -0.5h30h24q33 0 69 3q6 -16 27 -45
t46.5 -60.5t50 -59.5t37.5 -42l100 -108q16 -17 39 -43t45.5 -51t39.5 -43.5t21 -20.5q2 2 2.5 7t0.5 17v195q0 28 -0.5 58t-2.5 57t-5.5 49t-10.5 33t-19 16.5t-31 8.5l-23 3q-7 5 -6.5 16t8.5 13q58 -3 115 -3q32 0 55 0.5t50 2.5q6 -4 7 -14t-5 -15l-23 -5
q-14 -2 -26 -6.5t-17 -16.5t-8 -33t-4.5 -47.5t-1.5 -56.5v-60v-239z" />
    <glyph glyph-name="O" unicode="O" horiz-adv-x="792" 
d="M387 636q-38 0 -75 -14.5t-67 -48.5t-48.5 -88.5t-18.5 -134.5q0 -52 12 -109.5t39 -105.5t71 -79.5t108 -31.5q43 0 80.5 16.5t65.5 51t44 89t16 129.5q0 57 -13 115t-41 105t-70.5 76.5t-102.5 29.5zM400 676q87 0 152.5 -29t109.5 -77t66 -111t22 -131
q0 -74 -26.5 -137t-73.5 -109t-111.5 -72t-140.5 -26q-85 0 -151 27.5t-111.5 74t-69.5 107.5t-24 128q0 76 26.5 141.5t74 112.5t113 74t144.5 27z" />
    <glyph glyph-name="P" unicode="P" horiz-adv-x="588" 
d="M119 510q0 34 -1 55t-5 33t-12.5 17t-24.5 7l-35 4q-5 5 -5 15t6 13q52 6 102.5 7.5t118.5 1.5q140 0 209 -40q39 -23 62 -61.5t23 -88.5q0 -57 -24 -94.5t-58.5 -59.5t-73 -31t-68.5 -9h-13t-12 1q-5 5 -6 12.5t3 12.5q34 7 57.5 22t38.5 37t21.5 49t6.5 58
q0 30 -9.5 57.5t-28 48.5t-45 33.5t-60.5 12.5q-19 0 -29 -1t-15 -5.5t-6 -12.5t-1 -23v-437q0 -40 2 -62t8 -33t17 -14t29 -5l37 -4q5 -5 4 -15.5t-6 -13.5q-45 2 -80 2.5t-68 0.5t-66 -0.5t-63 -2.5q-6 3 -6.5 13.5t4.5 15.5l16 2q18 3 29 6.5t17 14.5t8 33t2 62v366z" />
    <glyph glyph-name="Q" unicode="Q" horiz-adv-x="792" 
d="M387 636q-38 0 -75 -14.5t-67 -48.5t-48.5 -88.5t-18.5 -134.5q0 -52 12 -109.5t39 -105.5t71 -79.5t108 -31.5q43 0 80.5 16.5t65.5 51t44 89t16 129.5q0 57 -13 115t-41 105t-70.5 76.5t-102.5 29.5zM400 676q87 0 152.5 -29t109.5 -77.5t66 -111.5t22 -130
q0 -59 -17 -110.5t-47 -93.5t-71.5 -72.5t-90.5 -46.5q-9 -6 9 -21q21 -19 48 -41.5t56 -44.5t59 -39.5t58 -25.5q38 -11 72 -11q15 0 27.5 3t22.5 7q5 -2 6.5 -8.5t-0.5 -11.5q-23 -17 -58 -24t-67 -7q-50 0 -100.5 14t-98 39t-91 58.5t-80.5 72.5q-14 14 -21 17.5t-16 4.5
q-68 6 -125 34.5t-97.5 74t-63 103.5t-22.5 122q0 76 26.5 141.5t74 112.5t113 74t144.5 27z" />
    <glyph glyph-name="R" unicode="R" horiz-adv-x="656" 
d="M235 366q0 -12 0.5 -19t5 -10t14.5 -4t28 -1q74 0 108.5 35.5t34.5 107.5q0 30 -9.5 56.5t-27 47t-43 32.5t-58.5 12q-20 0 -30.5 -1t-15.5 -6t-6 -15t-1 -27v-208zM119 510q0 36 -1 57.5t-5.5 33t-14 16t-27.5 6.5l-26 3q-5 5 -5 14q0 10 6 14q48 5 108 7t122 2
q59 0 108 -8t82 -26q38 -20 63 -56t25 -90q0 -35 -12 -61t-30 -45t-39 -32t-39 -20q-5 -2 -4 -7t4 -10q60 -102 101 -166t76 -93q21 -18 40.5 -24t28.5 -7q4 -3 4 -10q0 -6 -2 -10q-9 -2 -24.5 -4t-41.5 -2q-36 0 -64.5 7.5t-53 23.5t-46.5 41t-45 60q-20 32 -40.5 69.5
t-38.5 66.5q-14 22 -25.5 28t-36.5 6q-23 0 -27 -3t-4 -19v-128q0 -40 2 -62t8 -33t17 -14.5t29 -5.5l22 -3q5 -5 4.5 -15.5t-6.5 -13.5q-66 3 -133 3q-66 0 -135 -3q-6 3 -7.5 13.5t5.5 15.5l22 3q18 2 29 5.5t17 14.5t8 33t2 62v366z" />
    <glyph glyph-name="S" unicode="S" horiz-adv-x="504" 
d="M231 -16q-35 0 -62 5t-47 11.5t-34 13.5t-21 12q-7 8 -12.5 24t-9.5 36.5t-6 44.5t-2 47q5 8 15 8.5t16 -4.5q7 -19 20.5 -46t34.5 -52t49.5 -42.5t65.5 -17.5q57 0 88 30.5t31 76.5q0 43 -22.5 78t-79.5 67l-43 24q-28 16 -53.5 35.5t-45 43t-31 52t-11.5 62.5
q0 37 14 70.5t41.5 58.5t68.5 39.5t96 14.5q39 0 70.5 -7t66.5 -14q4 -8 8 -23.5t7 -34.5t4.5 -39t1.5 -38q-4 -7 -14.5 -7.5t-17.5 4.5q-6 19 -15.5 40.5t-25.5 38.5t-39 28.5t-55 11.5q-30 0 -51.5 -9t-35 -23.5t-20 -33.5t-6.5 -39q0 -32 22.5 -64t72.5 -58l62 -33
q24 -13 48.5 -31t44 -42.5t32 -55t12.5 -68.5q0 -43 -16 -78.5t-46 -61.5t-73 -40.5t-97 -14.5z" />
    <glyph glyph-name="T" unicode="T" horiz-adv-x="682" 
d="M286 576q0 31 -4 37.5t-23 6.5h-56q-35 0 -58 -3t-40.5 -12.5t-30.5 -28t-27 -48.5q-5 -5 -17 -3t-15 10q13 40 23.5 82.5t15.5 68.5q3 4 11 4q7 0 10 -4q2 -9 6 -14.5t13.5 -8t25.5 -3t42 -0.5h408q37 0 52 4.5t24 21.5q8 4 12 4q10 0 13 -5q-4 -15 -7 -37.5t-5.5 -45.5
t-3 -43.5t0.5 -32.5q-4 -6 -14 -7t-17 4q-5 29 -12 48t-22 30t-40 15t-65 4h-57q-10 0 -15.5 -1t-8 -5.5t-3 -13t-0.5 -24.5v-432q0 -40 2 -62t8 -33t17 -14t29 -5l36 -4q5 -5 4.5 -15.5t-6.5 -13.5q-44 2 -79 2.5t-68 0.5t-70 -0.5t-85 -2.5q-6 3 -6.5 14t4.5 15l42 5
q18 1 29 4t17 14t8 33t2 62v432z" />
    <glyph glyph-name="U" unicode="U" horiz-adv-x="744" 
d="M113 516q0 40 -2 62t-8 33t-17 14.5t-29 6.5l-17 3q-5 5 -4.5 15t6.5 13q30 -2 63 -2.5t66 -0.5q68 0 134 3q6 -3 6.5 -13t-4.5 -15l-22 -3q-18 -3 -29 -6.5t-17 -14.5t-8 -33t-2 -62v-229q0 -52 8.5 -98t29.5 -80.5t56 -55t87 -20.5q49 0 84 18t57.5 50.5t33 79
t10.5 103.5v125q0 28 -0.5 58.5t-2.5 57.5t-5.5 48.5t-10.5 32.5t-19 17t-31 9l-20 3q-7 5 -6.5 15.5t8.5 12.5q51 -3 111 -3q32 0 55 0.5t51 2.5q6 -4 7 -13.5t-5 -14.5l-22 -5q-14 -3 -26.5 -7.5t-17.5 -16.5q-5 -11 -8 -32t-4.5 -48t-1.5 -57v-60v-119q0 -69 -13.5 -129
t-52.5 -102t-91.5 -58.5t-104.5 -16.5q-71 0 -121 15.5t-85 48.5q-66 63 -66 214v254z" />
    <glyph glyph-name="V" unicode="V" horiz-adv-x="650" 
d="M449 248q-15 -34 -30.5 -71.5t-30 -73t-26 -65.5t-17.5 -49q-2 -2 -7 -3.5t-10 -1.5q-11 0 -19 5q-9 30 -20.5 64.5t-25.5 66.5l-175 421q-11 25 -18.5 41t-15.5 25.5t-18 14.5t-25 8l-24 5q-5 5 -5 15q0 11 8 13q29 -2 60.5 -2.5t60.5 -0.5q34 0 63 0.5t69 2.5
q7 -5 7.5 -14.5t-6.5 -14.5l-25 -6q-17 -4 -23.5 -8t-6.5 -10q0 -3 2 -10t7 -21.5t15 -39t25 -62.5l72 -178q7 -17 15 -35.5t15.5 -36t14 -32t10.5 -23.5q41 95 84 196t83 204q12 30 9 40t-26 15l-29 7q-5 6 -4.5 15.5t6.5 13.5q61 -3 107 -3q55 0 97 3q6 -4 6 -14
q0 -9 -4 -15l-25 -5q-17 -4 -33 -11.5t-29 -29.5q-21 -36 -44.5 -88t-57.5 -128z" />
    <glyph glyph-name="W" unicode="W" horiz-adv-x="968" 
d="M992 630q-17 -3 -29.5 -9.5t-23 -19.5t-21 -33t-24.5 -51q-57 -127 -106 -234t-91 -212q-11 -28 -18 -48.5t-14 -34.5q-6 -4 -17 -4q-13 0 -18 4q-8 23 -22.5 57t-32 72.5t-36 77t-33.5 70.5q-34 -69 -66 -137.5t-61 -139.5q-6 -4 -17 -4q-13 0 -18 4q-12 34 -30 74
t-40 86l-193 409q-8 17 -14.5 28.5t-14 19.5t-18 13.5t-25.5 9.5l-28 7q-5 5 -4.5 14.5t7.5 13.5q54 -3 121 -3q27 0 56.5 0.5t65.5 2.5q6 -4 7 -13.5t-4 -14.5l-25 -6q-10 -2 -16.5 -5.5t-6.5 -10.5t5.5 -22.5t18.5 -44.5l119 -258q26 -57 44 -94.5t26 -49.5q16 30 32 65
t35 74q5 11 9.5 22t4.5 16q0 4 -2.5 12t-6.5 18l-105 222q-15 30 -26.5 40.5t-31.5 15.5l-29 6q-5 5 -4.5 14.5t7.5 13.5q31 -2 56.5 -2.5t51.5 -0.5q59 0 119 3q6 -3 6.5 -13t-4.5 -15l-27 -6q-17 -5 -17 -14q0 -5 2 -13t7 -20q17 -38 34 -75t34 -71q13 26 25 53t24 55
q11 26 16.5 44t5.5 25q0 11 -20 15l-28 7q-5 6 -4 15.5t7 12.5q20 -2 42 -2.5t51 -0.5q26 0 46.5 0.5t44.5 2.5q8 -4 8 -14t-6 -15l-25 -5q-14 -3 -23.5 -7.5t-18 -12.5t-17 -22t-20.5 -36q-17 -30 -34.5 -67.5t-34.5 -71.5q-4 -8 -7 -17t-3 -11q0 -5 8 -24l43 -93
q8 -17 16.5 -36t16 -36t14 -31t9.5 -20q38 90 78 186l80 192q13 31 22 57t9 36q0 5 -11 8.5t-23 6.5l-17 5q-7 5 -7 14q0 10 8 14q28 -2 52 -2.5t50 -0.5q49 0 96 3q6 -4 7 -12.5t-4 -15.5z" />
    <glyph glyph-name="X" unicode="X" horiz-adv-x="648" 
d="M-3 634q-6 6 -5 16t8 13q34 -2 64.5 -2.5t65.5 -0.5q40 0 72 0.5t53 2.5q7 -3 7 -14q0 -10 -5 -15l-19 -2q-15 -2 -24 -5t-9 -8q0 -6 5 -16.5t20 -33.5q9 -14 25 -38l33 -49.5t32.5 -48t23.5 -32.5q9 10 27.5 36.5t39 56t38.5 56.5t27 40q12 17 13 26q-2 5 -10 8t-20 5
l-22 5q-7 5 -6.5 14.5t8.5 14.5q29 -2 54 -2.5t51 -0.5t48 0.5t49 2.5q7 -4 7.5 -13t-4.5 -16l-29 -6q-15 -3 -26.5 -7.5t-22 -13.5t-23 -22.5t-28.5 -33.5q-29 -36 -61 -78.5t-61 -84.5q-8 -13 -11.5 -19.5t-3.5 -9.5q0 -4 3 -11.5t13 -22.5q45 -66 89 -130t79 -109
q21 -29 40.5 -40t48.5 -16l25 -4q5 -5 5 -15t-7 -14q-36 2 -69.5 2.5t-71.5 0.5q-37 0 -70.5 -0.5t-71.5 -2.5q-6 3 -7.5 13.5t5.5 15.5l36 7q21 3 21 13q0 5 -6 17.5t-23 37.5l-17 25q-18 28 -41.5 63t-55.5 80q-15 -20 -33 -45t-36 -51.5t-35.5 -52.5t-31.5 -49
q-13 -20 -13 -29q0 -5 7.5 -7.5t18.5 -4.5l26 -4q6 -5 5.5 -16t-7.5 -13q-26 2 -55.5 2.5t-60.5 0.5q-51 0 -99 -3q-7 5 -7.5 14t3.5 15l27 5q16 3 29 7.5t25 12t24 20t27 30.5q8 11 23.5 31.5t34.5 45.5t39.5 52.5t40.5 52.5q15 20 15 29q0 4 -2 9.5t-9 15.5
q-18 25 -38 55.5t-40 60.5t-38.5 58t-32.5 48q-23 32 -40.5 47.5t-40.5 20.5z" />
    <glyph glyph-name="Y" unicode="Y" horiz-adv-x="590" 
d="M241 203q0 21 -1 35.5t-4.5 27.5t-10 27t-16.5 34l-120 237q-8 16 -14.5 27t-14.5 18t-18.5 11.5t-27.5 7.5l-26 6q-5 5 -3.5 16t7.5 13q64 -3 126 -3h35t37 0.5t32.5 1t23.5 1.5q6 -3 7 -13.5t-5 -15.5l-30 -5q-12 -2 -16.5 -4.5t-4.5 -8.5t3.5 -16.5t14.5 -35.5
q30 -65 58 -125t58 -115q31 57 59.5 110.5t57.5 110.5q13 26 20 42.5t7 24.5t-6 10.5t-17 4.5l-30 7q-5 5 -5 15t8 14q33 -2 57.5 -2.5t47.5 -0.5q47 0 95 3q7 -4 7 -14q0 -9 -5 -15l-29 -6q-17 -3 -29 -9t-23 -18.5t-24.5 -33.5t-32.5 -54q-26 -43 -49 -84.5t-46 -83.5
q-11 -20 -18.5 -34.5t-11.5 -30t-5.5 -33.5t-1.5 -43v-60q0 -40 2 -62t8.5 -33t18 -14t29.5 -5l38 -4q5 -5 4.5 -15.5t-6.5 -13.5q-47 2 -82.5 2.5t-68.5 0.5q-35 0 -69.5 -0.5t-75.5 -2.5q-6 3 -6.5 13.5t4.5 15.5l32 4q18 2 29 5t17 14t8 33t2 62v59z" />
    <glyph glyph-name="Z" unicode="Z" horiz-adv-x="638" 
d="M477 660q51 0 76 1t37 3q11 -3 9 -16q-9 -9 -26.5 -32t-38.5 -53.5t-44 -65t-44 -65.5l-162 -244q-6 -9 -19.5 -29t-27 -41t-23.5 -39t-10 -22q0 -8 9 -11t23 -4q7 0 16 -0.5t22 -1t32 -0.5h46q69 0 109.5 4.5t63.5 18.5q42 25 73 106q7 5 18.5 2.5t13.5 -10.5
q-3 -25 -8.5 -50t-12.5 -47.5t-14 -40t-13 -26.5q-20 1 -41.5 1.5t-44.5 0.5q-23 1 -48 1h-51h-260q-42 0 -66.5 -0.5t-38.5 -2.5q-10 4 -6 15q6 7 18.5 23t28 37t33.5 45.5t34 49.5l220 332q30 46 49.5 76.5t19.5 37.5q0 5 -10 6t-24 1h-121q-57 0 -93 -7.5t-55 -26.5
q-15 -15 -26.5 -36t-19.5 -40q-8 -5 -18.5 -3t-13.5 10q11 44 23 85t20 83q3 3 8 3q6 0 9 -3q3 -9 8.5 -14t17 -7.5t30.5 -3t49 -0.5h264z" />
    <glyph glyph-name="bracketleft" unicode="[" horiz-adv-x="320" 
d="M101 688q21 1 38 1h35q42 0 74 -1t44 -3q5 -5 5 -13q0 -7 -5 -11l-89 -11q-14 -2 -21.5 -5.5t-11 -19t-4.5 -48t-1 -92.5v-434q0 -60 1 -92.5t4.5 -48t11 -19t21.5 -5.5l89 -11q5 -4 5 -11q0 -8 -5 -13q-12 -2 -44 -3t-74 -1h-35q-17 0 -38 1v840z" />
    <glyph glyph-name="backslash" unicode="\" horiz-adv-x="329" 
d="M299 -16h-78l-191 692h78z" />
    <glyph glyph-name="bracketright" unicode="]" horiz-adv-x="320" 
d="M219 -152q-21 -1 -39 -1h-34q-42 0 -74 1t-44 3q-5 5 -5 13q0 7 5 11l89 11q13 2 21 5.5t11.5 19t4.5 48t1 92.5v434q0 60 -1 92.5t-4.5 48t-11.5 19t-21 5.5l-89 11q-5 4 -5 11q0 8 5 13q12 2 44 3t74 1h34q18 0 39 -1v-840z" />
    <glyph glyph-name="asciicircum" unicode="^" 
d="M380 244l-124 289l-124 -289h-77l171 382h60l170 -382h-76z" />
    <glyph glyph-name="underscore" unicode="_" horiz-adv-x="500" 
d="M500 -125h-500v50h500v-50z" />
    <glyph glyph-name="grave" unicode="`" horiz-adv-x="380" 
d="M126 584q-11 11 -18 20t-7 18t5 16t18 17q17 14 34 14q8 0 15.5 -6.5t15.5 -23.5l91 -182q-3 -17 -22 -16z" />
    <glyph glyph-name="a" unicode="a" horiz-adv-x="420" 
d="M245 161q0 17 -8 17q-6 0 -18 -3.5t-26 -8.5q-11 -4 -20.5 -9t-17 -12.5t-12 -18.5t-4.5 -27q0 -20 13.5 -39t42.5 -19q27 0 37 15t11 33zM343 127q-5 -88 48 -88q13 0 22.5 5.5t11.5 5.5q4 0 7.5 -6.5t1.5 -13.5q-8 -11 -20 -19t-26 -13.5t-28 -8.5t-26 -3
q-19 0 -38.5 6t-33.5 22l-8.5 8.5t-7.5 3.5t-10 -3.5t-17 -10.5q-14 -9 -36 -17.5t-49 -8.5q-26 0 -45 8t-31.5 21.5t-19 31t-6.5 36.5q0 13 3.5 26t12.5 25t25 22.5t42 19.5t54 19t56 21q15 5 19 11.5t4 14.5l1 26q1 19 -1.5 36.5t-9.5 30.5t-19.5 20.5t-30.5 7.5
q-21 0 -35.5 -11t-17.5 -33q-3 -26 -19 -36q-11 -7 -29 -12.5t-35 -5.5q-19 0 -19 16q0 9 7 25t32 39q12 11 30 22t39.5 20t43.5 15t41 6q60 0 93.5 -29.5t30.5 -95.5z" />
    <glyph glyph-name="b" unicode="b" 
d="M175 160q0 -33 5 -58.5t17 -41.5q11 -14 28 -24t39 -10q51 0 77.5 42t26.5 106q0 44 -11 77.5t-29 56.5t-42 34.5t-51 11.5q-15 0 -29 -4t-20 -9q-7 -5 -9 -16t-2 -37v-128zM175 394q0 -11 1.5 -14.5t6.5 -3.5q24 14 49.5 23t55.5 9q44 0 79.5 -15.5t60 -42t38 -62.5
t13.5 -78q0 -53 -18.5 -95t-51 -70.5t-75.5 -43.5t-92 -15q-28 0 -50.5 4t-39.5 9.5t-28 9.5t-15 4q-9 0 -14.5 -5.5l-10.5 -10.5q-2 -1 -7 -1q-3 0 -6.5 2.5t-3.5 4.5q0 1 0.5 11t1 23.5t1 29.5t0.5 30v451q0 25 -0.5 40t-3 24t-7 13.5t-12.5 9.5l-14 9q-5 3 -5 12t5 11
q29 8 64.5 22t66.5 26q10 2 14 -8q-1 -15 -1.5 -33.5t-1 -38t-0.5 -38.5v-35v-168z" />
    <glyph glyph-name="c" unicode="c" horiz-adv-x="400" 
d="M277 408q22 0 43.5 -3t42.5 -11q20 -18 20 -51q0 -24 -9.5 -35.5t-15.5 -11.5q-5 0 -9.5 2t-9.5 9q-17 22 -39.5 41.5t-51.5 19.5q-21 0 -42 -10t-37.5 -29.5t-26.5 -47.5t-10 -63q0 -30 9.5 -58.5t28 -50.5t45 -35.5t60.5 -13.5q24 0 41.5 4t29.5 11.5t20.5 17
t16.5 20.5q7 1 13.5 -4t7.5 -14q-14 -30 -34 -51t-44 -34t-49 -18.5t-49 -5.5q-40 0 -76.5 14.5t-62.5 39.5q-26 26 -42 63t-16 81t16 84.5t47 71.5t77 49.5t106 18.5z" />
    <glyph glyph-name="d" unicode="d" horiz-adv-x="513" 
d="M335 286q0 15 -2.5 26t-10.5 22q-11 14 -27.5 24t-39.5 10q-26 0 -46.5 -12t-34.5 -32t-22 -48t-8 -59q0 -39 9.5 -70.5t26.5 -54t39.5 -34.5t49.5 -12q18 0 35.5 7.5t23.5 14.5q7 7 7 28v190zM440 163q0 -68 5.5 -95t18.5 -27q19 0 42 9q6 -5 6.5 -18t-7.5 -18
q-19 -2 -41 -6t-43.5 -9t-41 -11t-32.5 -12q-9 2 -12 11l2 15q1 22 -1 28l-5 1q-23 -17 -51 -31t-64 -14q-43 0 -77 16t-58 42.5t-37 61t-13 72.5q0 54 20 96.5t53 72.5t76.5 45.5t90.5 15.5q20 0 34 -2t24 -5q6 1 6 16v131q0 25 -0.5 40t-3 24t-7 13.5t-12.5 9.5l-14 9
q-5 3 -5 12t5 11q29 8 65 22t66 26q10 2 14 -8q-1 -15 -1.5 -33.5t-1 -38t-0.5 -38.5v-35v-399z" />
    <glyph glyph-name="e" unicode="e" horiz-adv-x="409" 
d="M237 277q22 0 33 2t16 5q10 7 10 21q0 27 -17 46t-49 19q-25 0 -43.5 -10.5t-30.5 -24.5t-18 -28.5t-6 -22.5q0 -3 2.5 -5t11.5 -2h91zM145 237q-14 0 -17.5 -2t-3.5 -11q0 -34 11 -63.5t31 -51.5t48 -34.5t61 -12.5q30 0 54.5 11t41.5 39q8 2 14.5 -3.5t7.5 -12.5
q-13 -30 -32.5 -51t-42 -34t-47 -19t-47.5 -6q-44 0 -79.5 15t-60.5 42t-39 63.5t-14 79.5q0 42 14 82t41 71t66.5 50t89.5 19q28 0 55 -9t48 -26t34 -42t13 -58q0 -13 -5 -23q-9 -13 -69 -13h-173z" />
    <glyph glyph-name="f" unicode="f" horiz-adv-x="301" 
d="M214 347q-16 0 -18.5 -4.5t-2.5 -26.5v-197q0 -28 1 -44.5t5 -26t12 -13.5t21 -5l39 -4q5 -5 4.5 -15.5t-6.5 -13.5q-34 2 -65 2.5t-66 0.5q-47 0 -108 -3q-6 3 -6.5 13.5t4.5 15.5l22 3q13 2 20.5 6t11.5 13.5t5 26t1 44.5v198q0 20 -2.5 25t-15.5 5h-36q-6 3 -7 10.5
t4 12.5l43 22q5 3 9.5 8t4.5 14v18q0 32 4 68.5t17 74.5q10 30 27 55.5t41 44t54 29.5t65 11q52 0 83 -20.5t31 -52.5q0 -21 -15.5 -34.5t-33.5 -13.5q-11 0 -17.5 4t-11.5 10q-24 35 -42 50.5t-36 15.5q-26 0 -43.5 -52.5t-17.5 -165.5v-30q0 -23 3 -27.5t19 -4.5h105
q6 -5 6 -16q0 -13 -4 -20t-10 -11h-98z" />
    <glyph glyph-name="g" unicode="g" horiz-adv-x="464" 
d="M154 268q0 -58 22.5 -88t51.5 -30t47.5 25t18.5 78q0 51 -20 84t-54 33q-26 0 -46 -25t-20 -77zM220 -49q-52 0 -68 -12q-13 -10 -21.5 -23.5t-8.5 -32.5q0 -46 36.5 -73.5t94.5 -27.5q64 0 98.5 24.5t34.5 68.5q0 38 -31 57t-78 19h-57zM388 320q2 -8 3.5 -17t1.5 -26
q0 -32 -10.5 -61.5t-33 -52.5t-57 -37t-82.5 -14q-9 0 -18.5 1t-19.5 3q-12 -6 -21.5 -15.5t-9.5 -23.5q0 -15 12 -27t43 -12q22 0 50 1t60 1q27 0 56 -3.5t52.5 -16t39 -36.5t15.5 -65q0 -20 -6 -38.5t-15.5 -34.5t-20.5 -28.5t-21 -20.5q-33 -27 -81 -46.5t-113 -19.5
q-53 0 -89 11t-57.5 28.5t-31 38t-9.5 40.5q0 11 2.5 21.5t11.5 21.5q3 4 11 9.5t17.5 12t18.5 12.5t15 11t9.5 12.5t-3.5 9.5q-26 9 -46 31.5t-20 51.5q0 16 16 25q6 3 16.5 9.5t21 14.5t18.5 16t8 13q0 2 -0.5 5.5t-3.5 5.5q-13 5 -26 15t-23.5 25t-17.5 35t-7 44
q0 34 13.5 63t37.5 50t57.5 33t74.5 12q30 0 55.5 -5.5t45.5 -15.5q16 -8 25.5 -11.5t18.5 -3.5h98q8 -6 8 -18q0 -15 -5 -23.5t-11 -10.5h-73z" />
    <glyph glyph-name="h" unicode="h" horiz-adv-x="522" 
d="M182 377q0 -17 9 -17q26 20 58 34t70 14q65 0 96.5 -38t31.5 -102v-149q0 -28 1 -44.5t5 -26t11.5 -13.5t20.5 -6l23 -3q7 -5 6.5 -15.5t-8.5 -13.5q-32 2 -58.5 2.5t-54.5 0.5q-50 0 -102 -3q-6 3 -6.5 13.5t4.5 15.5l15 2q13 2 20.5 6t11.5 14t5 26.5t1 44.5v141
q0 36 -18 62t-62 26q-25 0 -42 -9.5t-26 -19.5q-8 -9 -10 -23t-2 -43v-134q0 -28 1 -44.5t5 -26.5t11.5 -14t20.5 -6l15 -2q5 -5 4.5 -15.5t-6.5 -13.5q-53 3 -106 3q-24 0 -50 -0.5t-58 -2.5q-6 3 -6.5 13.5t4.5 15.5l22 3q13 2 20.5 6t11.5 13.5t5 26t1 44.5v429
q0 25 -0.5 40t-3 24t-7 13.5t-12.5 9.5l-14 9q-5 3 -5 12t5 11q29 8 64.5 22t66.5 26q10 2 14 -8q-1 -15 -1.5 -33.5t-1 -38t-0.5 -38.5v-35v-185z" />
    <glyph glyph-name="i" unicode="i" horiz-adv-x="268" 
d="M140 540q-29 0 -46.5 18t-17.5 45t17.5 45t46.5 18t46.5 -18t17.5 -45t-17.5 -45t-46.5 -18zM193 119q0 -28 1 -44.5t5 -26t11.5 -13.5t20.5 -6l18 -3q5 -5 4.5 -15.5t-6.5 -13.5q-28 2 -54 2.5t-54 0.5q-48 0 -105 -3q-6 3 -6.5 13.5t4.5 15.5l18 3q13 2 20.5 6
t11.5 13.5t5 26t1 44.5v147q0 17 -0.5 28t-2.5 19t-7.5 13.5t-14.5 11.5l-12 7q-2 3 -2 11t3 12q39 11 74 26t56 28q10 -2 14 -8q-2 -25 -2.5 -58t-0.5 -64v-173z" />
    <glyph glyph-name="j" unicode="j" horiz-adv-x="259" 
d="M138 540q-29 0 -46.5 18t-17.5 45t17.5 45t46.5 18t46.5 -18t17.5 -45t-17.5 -45t-46.5 -18zM192 53q0 -52 -5 -92t-18 -69q-24 -57 -71.5 -96.5t-103.5 -64.5q-8 2 -12 10t-1 18q20 11 37 24.5t28 29.5q17 26 29 78.5t12 140.5v234q0 17 -0.5 28t-2.5 19t-7.5 13.5
t-14.5 11.5l-12 7q-2 3 -2 11t3 12q39 11 74 26t56 28q10 -2 14 -8q-2 -25 -2.5 -58t-0.5 -64v-239z" />
    <glyph glyph-name="k" unicode="k" horiz-adv-x="484" 
d="M76 548q0 25 -0.5 40t-3 24t-8 14t-14.5 11l-11 7q-5 3 -5 12t5 11q29 8 64.5 22t66.5 26q10 2 14 -8q-1 -15 -1.5 -33.5t-1 -38t-0.5 -38.5v-35v-317q0 -9 4 -11.5t18 -2.5q13 0 28.5 7t36.5 31l39 43q16 17 22.5 26t6.5 13q0 7 -16 10l-27 3q-7 5 -6.5 15.5t8.5 14.5
h29q33 0 74.5 1.5t81.5 6.5q7 -3 7 -14q0 -10 -5 -16l-18 -3q-25 -5 -40.5 -12t-32.5 -22q-26 -23 -49.5 -43.5t-35.5 -33.5q-8 -10 0 -20q15 -21 34 -47.5t39 -52.5t38 -48.5t32 -35.5q14 -14 28.5 -19.5t28.5 -7.5l10 -1q5 -6 4.5 -16t-7.5 -13q-50 3 -111 3
q-30 0 -53.5 -0.5t-54.5 -2.5q-8 4 -8.5 14t6.5 15l10 1q8 2 13.5 5t5.5 7q0 8 -12 24l-82 115q-9 13 -17.5 16.5t-13.5 3.5q-9 0 -12 -5.5t-3 -25.5v-48q0 -28 1 -44.5t5 -26t11.5 -13.5t20.5 -6l22 -3q5 -5 4.5 -15.5t-6.5 -13.5q-32 2 -58.5 2.5t-54.5 0.5q-46 0 -107 -3
q-6 3 -6.5 13.5t4.5 15.5l21 3q13 2 20.5 6t11.5 13.5t5 26t1 44.5v429z" />
    <glyph glyph-name="l" unicode="l" horiz-adv-x="258" 
d="M78 548q0 25 -0.5 40t-3 24t-8 14t-14.5 11l-11 7q-5 3 -5 12t5 11q29 8 65 22t66 26q10 2 14 -8q-1 -15 -1.5 -33.5t-1 -38t-0.5 -38.5v-35v-443q0 -28 1 -44.5t5 -26t11.5 -13.5t20.5 -6l22 -3q5 -5 4.5 -15.5t-6.5 -13.5q-31 2 -57.5 2.5t-54.5 0.5q-47 0 -108 -3
q-6 3 -6.5 13.5t4.5 15.5l21 3q13 2 20.5 6t11.5 13.5t5 26t1 44.5v429z" />
    <glyph glyph-name="m" unicode="m" horiz-adv-x="798" 
d="M88 266q0 17 -0.5 28t-2.5 19t-7.5 13.5t-14.5 11.5l-12 7q-2 3 -2 11t3 12q33 9 69.5 24.5t60.5 29.5q9 0 13 -8q-2 -14 -2 -27v-19q0 -9 9 -10q18 10 33.5 19t31 16t34 11t44.5 4q32 0 55.5 -14t34.5 -28q10 -15 16 -15q5 0 22 10q35 22 64 34.5t64 12.5
q63 0 92.5 -37.5t29.5 -96.5v-155q0 -28 1 -44.5t5 -26t11.5 -13.5t20.5 -6l22 -3q7 -5 5 -15.5t-5 -13.5q-32 2 -59 2.5t-55 0.5q-49 0 -103 -3q-6 3 -6.5 13.5t4.5 15.5l16 3q13 2 20.5 6t11.5 13.5t5 26t1 44.5v136q0 40 -17 66.5t-64 26.5q-22 0 -40 -9.5t-27 -20.5
q-8 -9 -10 -20t-2 -32v-147q0 -28 1 -44.5t5 -26.5t11.5 -14t20.5 -6l15 -2q5 -5 4.5 -15.5t-6.5 -13.5q-26 2 -51.5 2.5t-53.5 0.5q-51 0 -100 -3q-6 3 -6.5 13.5t4.5 15.5l13 2q13 2 20.5 6t11.5 14t5 26.5t1 44.5v136q0 40 -16 66.5t-60 26.5q-26 0 -44.5 -10t-26.5 -21
q-9 -12 -11 -23.5t-2 -40.5v-134q0 -28 1 -44.5t5 -26.5t11.5 -14t20.5 -6l15 -2q5 -5 4.5 -15.5t-6.5 -13.5q-53 3 -106 3q-47 0 -104 -3q-6 3 -6.5 13.5t4.5 15.5l18 3q13 2 20.5 6t11.5 13.5t5 26t1 44.5v147z" />
    <glyph glyph-name="n" unicode="n" horiz-adv-x="533" 
d="M193 119q0 -28 1 -44.5t5 -26.5t11.5 -14t20.5 -6l15 -2q5 -5 4.5 -15.5t-6.5 -13.5q-53 3 -106 3q-24 0 -50 -0.5t-58 -2.5q-6 3 -6.5 13.5t4.5 15.5l22 3q13 2 20.5 6t11.5 13.5t5 26t1 44.5v147q0 17 -0.5 28t-2.5 19t-7.5 13.5t-14.5 11.5l-12 7q-2 3 -2 11t3 12
q16 4 34 10.5t35 14t33 15t28 14.5q9 0 13 -8q-2 -14 -2 -27v-19q0 -9 9 -10q18 10 32.5 19t30 16t33.5 11t41 4q61 0 90 -37.5t29 -96.5v-155q0 -28 1 -44.5t5 -26t11.5 -13.5t20.5 -6l23 -3q5 -5 4.5 -15.5t-6.5 -13.5q-32 2 -58.5 2.5t-54.5 0.5q-50 0 -102 -3
q-6 3 -6.5 13.5t4.5 15.5l15 2q13 2 20.5 6t11.5 14t5 26.5t1 44.5v138q0 38 -17.5 64.5t-62.5 26.5q-23 0 -40.5 -10t-25.5 -21q-5 -7 -7.5 -12.5t-4 -12.5t-2 -16t-0.5 -23v-134z" />
    <glyph glyph-name="o" unicode="o" horiz-adv-x="492" 
d="M149 205q0 -34 6.5 -66.5t19 -57.5t32.5 -40t47 -15q26 0 43 14t27.5 36.5t14.5 51t4 57.5q0 31 -5.5 64t-18 59t-32 43t-47.5 17q-38 0 -64.5 -39.5t-26.5 -123.5zM250 408q42 0 80.5 -14t67.5 -40.5t46 -64.5t17 -87q0 -53 -17.5 -93.5t-47.5 -67.5t-69.5 -41
t-84.5 -14q-43 0 -81.5 13.5t-67 39.5t-45.5 64t-17 87q0 50 18 90.5t48 69t69.5 43.5t83.5 15z" />
    <glyph glyph-name="p" unicode="p" horiz-adv-x="516" 
d="M181 110q0 -23 8 -36.5t24 -27.5q10 -8 26 -14t27 -6q26 0 46 12.5t33.5 35t20.5 52t7 64.5q0 72 -34 116t-93 44q-34 0 -54 -20q-6 -7 -8.5 -21.5t-2.5 -46.5v-152zM76 266q0 17 -0.5 27.5t-2.5 18t-7.5 13t-14.5 12.5l-12 8q-3 5 -3 12t4 11q15 4 33 11t36 15t34 16.5
t27 16.5q13 0 16 -10q-2 -14 -3.5 -23t-1.5 -16q0 -11 8 -13q5 2 17.5 9t30 14.5t37 13.5t39.5 6q41 0 73 -14.5t54 -39.5t33.5 -58.5t11.5 -72.5q0 -52 -17.5 -95.5t-50 -75t-77.5 -49t-100 -17.5q-9 0 -23 1t-21 3q-7 -2 -11 -7.5t-4 -20.5v-98q0 -28 1 -44.5t5 -26
t12 -13.5t21 -5l36 -4q5 -5 4.5 -15.5t-6.5 -13.5q-39 2 -69.5 2.5t-58.5 0.5q-52 0 -112 -3q-6 3 -6.5 13.5t4.5 15.5l26 3q13 2 20.5 6t11.5 13.5t5 26t1 44.5v402z" />
    <glyph glyph-name="q" unicode="q" horiz-adv-x="503" 
d="M335 250q0 29 -4 49.5t-14 34.5q-9 14 -24 24t-38 10q-20 0 -39 -9.5t-34 -28t-24.5 -47.5t-9.5 -68q0 -42 11.5 -74.5t31 -55t46 -34.5t55.5 -12q18 0 27.5 5t12.5 8q3 4 3 14v184zM335 -32q0 24 -2.5 33t-8.5 10q-15 -10 -41 -17.5t-45 -7.5q-61 0 -101 20.5
t-63.5 50.5t-33 64t-9.5 61q0 52 20 93.5t53.5 71t78.5 45.5t96 16q27 0 50.5 -4t35.5 -8q21 -7 36 -7q13 0 30 15q13 2 17 -8q-5 -18 -6.5 -45.5t-1.5 -75.5v-405q0 -28 1 -45.5t5 -27.5t11.5 -15t20.5 -7l36 -6q5 -4 4.5 -14t-6.5 -13q-42 2 -70 2.5t-56 0.5
q-25 0 -51.5 -0.5t-60.5 -2.5q-6 3 -6.5 13t4.5 14l25 5q13 3 20.5 7.5t11.5 15t5 28t1 45.5v98z" />
    <glyph glyph-name="r" unicode="r" horiz-adv-x="349" 
d="M89 266q0 17 -0.5 28t-2.5 19t-7.5 13.5t-14.5 11.5l-12 7q-2 3 -2 11t3 12q32 11 67.5 25.5t58.5 28.5q11 0 14 -9q-1 -14 -1.5 -26t-0.5 -19q0 -12 10 -12q23 17 47.5 34.5t50.5 17.5t40.5 -14.5t14.5 -34.5q0 -29 -18 -43.5t-38 -14.5q-14 0 -27 8q-19 13 -31 16
t-17 3q-17 0 -23 -17.5t-6 -54.5v-137q0 -28 1 -44.5t5 -26t12 -13.5t21 -5l39 -4q5 -5 4.5 -15.5t-6.5 -13.5q-45 2 -74 2.5t-57 0.5q-47 0 -104 -3q-6 3 -6.5 13.5t4.5 15.5l18 3q13 2 20.5 6t11.5 13.5t5 26t1 44.5v147z" />
    <glyph glyph-name="s" unicode="s" horiz-adv-x="346" 
d="M163 -14q-31 0 -60.5 7t-53.5 25q-4 7 -7 19.5t-4.5 28t-2.5 32.5t0 33q5 6 14 6.5t14 -4.5q7 -21 17 -40.5t23.5 -35t30.5 -24.5t37 -9q23 0 39.5 15t16.5 41q0 28 -21 46.5t-47 31.5q-20 9 -39 21t-34 27.5t-24 34.5t-9 43q0 29 11.5 52t31.5 39t47.5 24.5t58.5 8.5
t56.5 -7t36.5 -13q15 -32 15 -97q-2 -6 -12 -8t-15 3q-11 35 -34 59.5t-52 24.5q-24 0 -40 -15t-16 -37t19 -38t48 -30q20 -10 40 -21.5t35.5 -28t25.5 -38t10 -51.5q0 -33 -13.5 -56.5t-35 -38.5t-49.5 -22.5t-58 -7.5z" />
    <glyph glyph-name="t" unicode="t" horiz-adv-x="321" 
d="M208 350q-14 0 -16.5 -5t-2.5 -29v-154q0 -24 2.5 -45.5t10 -38t22 -26t38.5 -9.5q15 0 25.5 5t22.5 13q16 -2 13 -20q-15 -21 -48 -38t-79 -17q-36 0 -58 9.5t-34 26.5t-16 40t-4 49v203q0 26 -3 31t-15 5h-35q-8 4 -9 13t6 14q26 10 44 20t35 22q14 11 29 26.5t26 35.5
q7 5 15.5 3t12.5 -8v-60q0 -12 2.5 -15.5t16.5 -3.5h99q8 -4 8 -21q-2 -19 -13 -26h-95z" />
    <glyph glyph-name="u" unicode="u" horiz-adv-x="520" 
d="M445 147q0 -21 0.5 -40t3 -34t7.5 -23.5t14 -8.5q11 0 21.5 2t21.5 5q6 -4 6.5 -16t-9.5 -18q-17 -2 -38.5 -5.5t-44 -8t-44 -11t-37.5 -13.5q-7 1 -9 10q2 9 3 19t0 18q-1 11 -10 11q-32 -19 -65 -33.5t-71 -14.5q-34 0 -56.5 9t-36.5 26.5t-20 42t-6 55.5v156
q0 26 -1 41.5t-4 24t-9 12.5t-15 7l-14 4q-5 4 -4.5 14t6.5 12q45 1 83.5 6.5t55.5 11.5q9 -2 10 -9q-2 -9 -2.5 -28.5t-0.5 -56.5v-154q0 -22 3 -42.5t11.5 -36.5t24.5 -25.5t43 -9.5q17 0 35 6.5t31 18.5q8 8 10 18t2 38v151q0 24 -1.5 38t-6 22t-13.5 12t-23 8l-16 5
q-5 4 -5 14t6 13q25 0 50 1.5t46 4t37 5.5t24 7q9 -2 10 -9q-3 -29 -3 -85v-167z" />
    <glyph glyph-name="v" unicode="v" horiz-adv-x="434" 
d="M290 109q-12 -27 -25 -59t-22 -58q-6 -6 -17 -6t-18 6q-8 21 -18.5 47t-19.5 46q-8 18 -21.5 48.5t-27.5 62.5t-27 61t-20 45q-15 32 -27 44.5t-34 17.5l-19 4q-5 5 -4.5 15t6.5 14q52 -3 105 -3q34 0 59 0.5t51 2.5q8 -3 8.5 -13.5t-6.5 -15.5l-18 -3q-11 -2 -18 -4
t-7 -7t1.5 -13t6.5 -19q5 -14 16 -41.5t23.5 -57t23.5 -55.5t17 -37q18 38 36 82t38 92q14 35 14 45q0 5 -6 8t-15 5l-24 5q-6 6 -5 16t9 13q23 -2 42.5 -2.5t41.5 -0.5q40 0 73 3q7 -3 7.5 -13.5t-5.5 -15.5l-20 -4q-11 -2 -20 -5.5t-17 -12t-17 -23.5t-21 -40z" />
    <glyph glyph-name="w" unicode="w" horiz-adv-x="684" 
d="M450 364q-25 -6 -25 -13q0 -4 1 -9t5 -15q7 -18 18 -45t23.5 -54.5t24 -53t18.5 -41.5q6 13 16 36t20 48.5t19.5 49.5t14.5 39q11 32 11 42q0 8 -19 13l-34 7q-6 5 -5 15.5t7 13.5q26 -2 45.5 -2.5t36.5 -0.5t36 0.5t43 2.5q7 -3 7.5 -13t-4.5 -16l-19 -5q-10 -3 -17 -6
t-13 -9.5t-12 -17.5t-14 -29l-61 -139q-17 -38 -35 -83.5t-33 -86.5q-6 -6 -17 -6t-18 6q-14 33 -30 70.5t-32 74t-31 69.5t-26 58q-11 -24 -28.5 -61.5t-35 -77.5t-32.5 -76t-22 -57q-6 -6 -17 -6t-18 6q-6 17 -20 51.5t-30 69.5q-15 33 -38.5 89.5t-55.5 125.5
q-8 16 -16.5 23.5t-29.5 12.5l-17 4q-5 6 -4 16t7 13q27 -2 52 -2.5t54 -0.5q58 0 99 3q6 -3 6.5 -14t-4.5 -15l-17 -5q-24 -6 -24 -14q0 -5 3 -12t8 -20l26 -65q7 -18 14.5 -36t14.5 -34t12.5 -29t8.5 -20q8 15 18 39t18 41l28 66q9 22 10.5 32t-0.5 21q-7 17 -17 22t-27 9
l-19 5q-6 5 -5.5 15.5t8.5 13.5q20 -2 45.5 -2.5t51.5 -0.5t54.5 0.5t53.5 2.5q8 -3 8.5 -14t-6.5 -15z" />
    <glyph glyph-name="x" unicode="x" horiz-adv-x="439" 
d="M191 363q-7 -2 -13 -3.5t-6 -5.5q0 -7 8 -19q1 -2 7 -10t13.5 -19.5t16.5 -24t18 -23.5q14 21 30 44t23 36q6 8 6 16q0 5 -17 10l-20 4q-7 5 -6.5 15.5t8.5 13.5q45 -3 90 -3q46 0 81 3q8 -4 8.5 -14t-6.5 -15l-27 -5q-15 -3 -26 -6.5t-20 -9t-17.5 -14t-18.5 -21.5
l-47 -59q-15 -17 -15 -24q0 -6 13 -24l78 -110q15 -22 25.5 -34.5t20.5 -19t22 -9.5t32 -6q5 -8 4 -16.5t-6 -12.5q-25 2 -54 2.5t-59 0.5q-66 0 -114 -3q-8 3 -8.5 13.5t5.5 15.5l24 5q8 2 15.5 4t7.5 6q0 6 -11 23q-7 10 -23.5 35t-36.5 51q-17 -23 -29.5 -42.5
t-26.5 -42.5q-6 -11 -8 -16t-2 -9q0 -7 18 -10l23 -4q6 -6 5 -16t-7 -13q-19 1 -40.5 2t-50.5 1q-26 0 -45 -0.5t-36 -2.5q-7 4 -8 14.5t6 14.5q32 5 51.5 10.5t33.5 21.5q6 8 18 23t24 30.5t22 29t13 17.5q7 10 11.5 17t4.5 10q0 6 -18 29l-81 108q-10 12 -17.5 20t-16 13
t-19.5 7.5t-27 5.5q-6 5 -5.5 15.5t7.5 13.5q28 -2 50.5 -2.5t54.5 -0.5q56 0 106 3q8 -2 8.5 -13.5t-5.5 -15.5z" />
    <glyph glyph-name="y" unicode="y" horiz-adv-x="448" 
d="M72 -249q-29 0 -42 15.5t-13 37.5q0 25 15 35t36 10l22 1q11 0 22.5 4.5t19.5 15.5q16 23 32.5 58t16.5 67q0 11 -3 28t-14 46l-81 210q-9 23 -15.5 38t-13.5 24.5t-16.5 14.5t-23.5 8l-20 4q-6 6 -5.5 16t8.5 13q25 -2 54 -2.5t57 -0.5q55 0 106 3q6 -3 6.5 -13.5
t-4.5 -15.5l-30 -6q-9 -2 -13.5 -4.5t-5 -7.5t2.5 -15t9 -26l44 -115q28 -74 34 -76q3 1 12.5 20.5t19.5 41.5l30 67q18 41 27 67.5t9 29.5q0 7 -4 11t-15 6l-34 7q-5 6 -4.5 15.5t6.5 13.5q27 -2 52.5 -2.5t42.5 -0.5q39 0 80 3q8 -2 8 -13t-5 -16q-9 -2 -28 -6.5
t-29 -15.5q-8 -8 -23 -31t-38 -70l-51 -102l-34.5 -69l-45.5 -91t-46.5 -96t-38.5 -82q-13 -29 -32 -41.5t-44 -12.5z" />
    <glyph glyph-name="z" unicode="z" horiz-adv-x="390" 
d="M153 0q-79 0 -121 -3q-10 4 -7 13l17 25.5t23.5 36.5t25.5 41t23 39l96 169q13 22 13 28q0 5 -22 5h-49q-23 0 -39.5 -2.5t-27.5 -11.5q-12 -10 -22 -28t-18 -32q-6 -3 -14.5 -2t-12.5 9q2 12 6 30t8.5 36t9.5 34t9 25q3 2 9 2t9 -2q1 -7 4.5 -10.5t11 -5t19.5 -2
t31 -0.5h165q38 0 61 3q7 -3 7 -12q-16 -22 -34 -50t-38 -63l-111 -194q-14 -24 -14 -31q0 -4 8.5 -5.5t30.5 -1.5h33q26 0 47 5t38 19q13 11 22.5 27t17.5 33q5 5 15 3t12 -8q-2 -15 -6 -33.5t-9.5 -35.5t-11 -31.5t-10.5 -21.5q-14 1 -27 1.5t-27 0.5q-14 1 -29 1h-32h-90
z" />
    <glyph glyph-name="braceleft" unicode="{" horiz-adv-x="320" 
d="M223 163q0 -26 -3 -52l-6 -52q-4 -26 -7 -51t-3 -50q0 -13 2.5 -27t11.5 -27t25.5 -23.5t44.5 -15.5q4 -5 3.5 -12t-5.5 -11q-23 0 -49.5 3.5t-49 16.5t-37.5 38.5t-15 69.5q0 26 2.5 52.5t5.5 52.5q3 27 5.5 53t2.5 51q0 18 -2 31t-11 22.5t-26.5 15.5t-48.5 8
q-5 4 -5 12t5 12q31 2 48.5 8t26.5 15.5t11 22.5t2 31q0 26 -2.5 52t-5.5 52t-5.5 52.5t-2.5 52.5q0 44 15 69.5t37.5 38.5t49 16.5t49.5 3.5q5 -4 5.5 -11t-3.5 -12q-28 -5 -44.5 -15.5t-25.5 -23.5t-11.5 -27t-2.5 -27q0 -25 3 -50t7 -51l6 -52t3 -52q0 -42 -18 -67.5
t-57 -35.5v-4q39 -10 57 -35.5t18 -67.5z" />
    <glyph glyph-name="bar" unicode="|" horiz-adv-x="255" 
d="M165 -250h-75v1000h75v-1000z" />
    <glyph glyph-name="braceright" unicode="}" horiz-adv-x="320" 
d="M97 373q0 26 3 52t7 52q3 26 6 51t3 50q0 13 -2.5 27t-11.5 27t-25.5 23.5t-44.5 15.5q-4 5 -3.5 12t5.5 11q23 0 49.5 -3.5t49 -16.5t37.5 -38.5t15 -69.5q0 -26 -2.5 -52.5t-5.5 -52.5t-5.5 -52t-2.5 -52q0 -18 2 -31t11 -22.5t26.5 -15.5t48.5 -8q5 -4 5 -12t-5 -12
q-31 -2 -48.5 -8t-26.5 -15.5t-11 -22.5t-2 -31q0 -25 2.5 -51t5.5 -53q3 -26 5.5 -52.5t2.5 -52.5q0 -44 -15 -69.5t-37.5 -38.5t-49 -16.5t-49.5 -3.5q-5 4 -5.5 11t3.5 12q28 5 44.5 15.5t25.5 23.5t11.5 27t2.5 27q0 25 -3 50t-6 51q-4 26 -7 52t-3 52q0 42 18 67.5
t57 35.5v4q-39 10 -57 35.5t-18 67.5z" />
    <glyph glyph-name="asciitilde" unicode="~" 
d="M318 236q23 0 45 4.5t34 18.5q9 11 16.5 22t13.5 25q10 3 22 -0.5t19 -12.5q-4 -11 -11 -24.5t-15 -27t-17 -25.5t-16 -19q-14 -14 -29.5 -18.5t-43.5 -4.5h-134q-33 0 -52 -5.5t-35 -19.5q-11 -10 -19 -23.5t-16 -27.5q-11 -5 -22 -0.5t-16 14.5q2 6 7.5 19t12.5 28
t16 29t18 22q17 18 35.5 22t46.5 4h140z" />
    <glyph glyph-name="Euro" horiz-adv-x="600" 
d="M54 383q11 53 37.5 100t67 81.5t94.5 54.5t119 20q45 0 78.5 -6.5t64.5 -14.5q8 -2 13.5 -3t11.5 -3q2 -17 4 -53.5t9 -78.5q-5 -6 -14.5 -6.5t-14.5 4.5q-6 16 -17 37.5t-29.5 40.5t-47 32t-68.5 13q-29 0 -59.5 -12.5t-57 -39.5t-46 -68t-26.5 -98h319q2 -5 0.5 -20
t-10.5 -20h-314q0 -4 -0.5 -11.5t-0.5 -15.5q0 -7 0.5 -14.5t1.5 -11.5h298q5 -5 2 -20t-12 -20h-285q8 -55 27.5 -97.5t46.5 -71.5t60 -44t69 -15q34 0 61 13t47.5 31.5t35 39.5t25.5 37q6 6 14.5 4.5t12.5 -8.5q-11 -48 -22.5 -79t-20.5 -45q-8 -2 -15.5 -4t-15.5 -4
q-8 -3 -22 -6.5t-32.5 -7.5t-39.5 -6.5t-43 -2.5q-133 0 -213.5 70.5t-96.5 195.5h-60q-3 2 -2.5 8t2.5 12t4.5 12t5.5 8h47q-1 11 -0.5 26.5t1.5 26.5h-38q-3 2 -2.5 8t2.5 12t4.5 12t5.5 8h34z" />
    <glyph glyph-name="Euro" unicode="&#x20ac;" horiz-adv-x="600" 
d="M54 383q11 53 37.5 100t67 81.5t94.5 54.5t119 20q45 0 78.5 -6.5t64.5 -14.5q8 -2 13.5 -3t11.5 -3q2 -17 4 -53.5t9 -78.5q-5 -6 -14.5 -6.5t-14.5 4.5q-6 16 -17 37.5t-29.5 40.5t-47 32t-68.5 13q-29 0 -59.5 -12.5t-57 -39.5t-46 -68t-26.5 -98h319q2 -5 0.5 -20
t-10.5 -20h-314q0 -4 -0.5 -11.5t-0.5 -15.5q0 -7 0.5 -14.5t1.5 -11.5h298q5 -5 2 -20t-12 -20h-285q8 -55 27.5 -97.5t46.5 -71.5t60 -44t69 -15q34 0 61 13t47.5 31.5t35 39.5t25.5 37q6 6 14.5 4.5t12.5 -8.5q-11 -48 -22.5 -79t-20.5 -45q-8 -2 -15.5 -4t-15.5 -4
q-8 -3 -22 -6.5t-32.5 -7.5t-39.5 -6.5t-43 -2.5q-133 0 -213.5 70.5t-96.5 195.5h-60q-3 2 -2.5 8t2.5 12t4.5 12t5.5 8h47q-1 11 -0.5 26.5t1.5 26.5h-38q-3 2 -2.5 8t2.5 12t4.5 12t5.5 8h34z" />
    <glyph glyph-name="Zcaron" horiz-adv-x="638" 
d="M344 713q-24 -21 -49 0l-141 136q0 7 3.5 12t11.5 5l132 -73q8 -4 18.5 -4.5t18.5 4.5l134 73q13 -2 13 -17zM477 660q51 0 76 1t37 3q11 -3 9 -16q-9 -9 -26.5 -32t-38.5 -53.5t-44 -65t-44 -65.5l-162 -244q-6 -9 -19.5 -29t-27 -41t-23.5 -39t-10 -22q0 -8 9 -11
t23 -4q7 0 16 -0.5t22 -1t32 -0.5h46q69 0 109.5 4.5t63.5 18.5q42 25 73 106q7 5 18.5 2.5t13.5 -10.5q-3 -25 -8.5 -50t-12.5 -47.5t-14 -40t-13 -26.5q-20 1 -41.5 1.5t-44.5 0.5q-23 1 -48 1h-51h-260q-42 0 -66.5 -0.5t-38.5 -2.5q-10 4 -6 15q6 7 18.5 23t28 37
t33.5 45.5t34 49.5l220 332q30 46 49.5 76.5t19.5 37.5q0 5 -10 6t-24 1h-121q-57 0 -93 -7.5t-55 -26.5q-15 -15 -26.5 -36t-19.5 -40q-8 -5 -18.5 -3t-13.5 10q11 44 23 85t20 83q3 3 8 3q6 0 9 -3q3 -9 8.5 -14t17 -7.5t30.5 -3t49 -0.5h264z" />
    <glyph glyph-name="Zcaron" unicode="&#x17d;" horiz-adv-x="638" 
d="M344 713q-24 -21 -49 0l-141 136q0 7 3.5 12t11.5 5l132 -73q8 -4 18.5 -4.5t18.5 4.5l134 73q13 -2 13 -17zM477 660q51 0 76 1t37 3q11 -3 9 -16q-9 -9 -26.5 -32t-38.5 -53.5t-44 -65t-44 -65.5l-162 -244q-6 -9 -19.5 -29t-27 -41t-23.5 -39t-10 -22q0 -8 9 -11
t23 -4q7 0 16 -0.5t22 -1t32 -0.5h46q69 0 109.5 4.5t63.5 18.5q42 25 73 106q7 5 18.5 2.5t13.5 -10.5q-3 -25 -8.5 -50t-12.5 -47.5t-14 -40t-13 -26.5q-20 1 -41.5 1.5t-44.5 0.5q-23 1 -48 1h-51h-260q-42 0 -66.5 -0.5t-38.5 -2.5q-10 4 -6 15q6 7 18.5 23t28 37
t33.5 45.5t34 49.5l220 332q30 46 49.5 76.5t19.5 37.5q0 5 -10 6t-24 1h-121q-57 0 -93 -7.5t-55 -26.5q-15 -15 -26.5 -36t-19.5 -40q-8 -5 -18.5 -3t-13.5 10q11 44 23 85t20 83q3 3 8 3q6 0 9 -3q3 -9 8.5 -14t17 -7.5t30.5 -3t49 -0.5h264z" />
    <glyph glyph-name="zcaron" horiz-adv-x="390" 
d="M64 675q3 17 20 15l83 -103q11 -14 17 -21.5t10 -8.5q7 1 27 26l86 105q17 0 20 -17l-108 -203q-5 -9 -11.5 -11.5t-10.5 -2.5q-5 0 -11 3t-11 11zM153 0q-79 0 -121 -3q-10 4 -7 13l17 25.5t23.5 36.5t25.5 41t23 39l96 169q13 22 13 28q0 5 -22 5h-49q-23 0 -39.5 -2.5
t-27.5 -11.5q-12 -10 -22 -28t-18 -32q-6 -3 -14.5 -2t-12.5 9q2 12 6 30t8.5 36t9.5 34t9 25q3 2 9 2t9 -2q1 -7 4.5 -10.5t11 -5t19.5 -2t31 -0.5h165q38 0 61 3q7 -3 7 -12q-16 -22 -34 -50t-38 -63l-111 -194q-14 -24 -14 -31q0 -4 8.5 -5.5t30.5 -1.5h33q26 0 47 5
t38 19q13 11 22.5 27t17.5 33q5 5 15 3t12 -8q-2 -15 -6 -33.5t-9.5 -35.5t-11 -31.5t-10.5 -21.5q-14 1 -27 1.5t-27 0.5q-14 1 -29 1h-32h-90z" />
    <glyph glyph-name="zcaron" unicode="&#x17e;" horiz-adv-x="390" 
d="M64 675q3 17 20 15l83 -103q11 -14 17 -21.5t10 -8.5q7 1 27 26l86 105q17 0 20 -17l-108 -203q-5 -9 -11.5 -11.5t-10.5 -2.5q-5 0 -11 3t-11 11zM153 0q-79 0 -121 -3q-10 4 -7 13l17 25.5t23.5 36.5t25.5 41t23 39l96 169q13 22 13 28q0 5 -22 5h-49q-23 0 -39.5 -2.5
t-27.5 -11.5q-12 -10 -22 -28t-18 -32q-6 -3 -14.5 -2t-12.5 9q2 12 6 30t8.5 36t9.5 34t9 25q3 2 9 2t9 -2q1 -7 4.5 -10.5t11 -5t19.5 -2t31 -0.5h165q38 0 61 3q7 -3 7 -12q-16 -22 -34 -50t-38 -63l-111 -194q-14 -24 -14 -31q0 -4 8.5 -5.5t30.5 -1.5h33q26 0 47 5
t38 19q13 11 22.5 27t17.5 33q5 5 15 3t12 -8q-2 -15 -6 -33.5t-9.5 -35.5t-11 -31.5t-10.5 -21.5q-14 1 -27 1.5t-27 0.5q-14 1 -29 1h-32h-90z" />
    <glyph glyph-name="nonbreakingspace" unicode="&#xa0;" horiz-adv-x="255" 
 />
    <glyph glyph-name="exclamdown" unicode="&#xa1;" horiz-adv-x="280" 
d="M141 394q28 0 46 -18t18 -46q0 -26 -18 -44t-46 -18q-29 0 -47 18t-18 44q0 28 18 46t47 18zM200 -165q2 -20 3.5 -35.5t1.5 -28.5q0 -17 -14 -27t-50 -10t-50.5 10t-14.5 27q0 13 2 28.5t4 35.5l44 340q7 5 15 5.5t15 -5.5z" />
    <glyph glyph-name="cent" unicode="&#xa2;" 
d="M294 167q15 -3 33 -3q41 0 64.5 16t41.5 36q17 -2 20 -15q-11 -26 -29.5 -43.5t-41 -28.5t-47 -16.5t-48.5 -5.5l-13 -103q-7 -7 -20.5 -6.5t-19.5 6.5l13 104q-84 8 -136 59t-52 139q0 40 15 78.5t44.5 69t74 50t104.5 22.5l10 86q8 5 21 5t19 -5l-10 -85q36 -1 78 -14
q10 -11 16 -25.5t6 -31.5t-6.5 -27.5t-11.5 -10.5t-9 2t-10 8q-14 16 -30.5 31t-38.5 22zM292 487q-24 -1 -47 -11t-40.5 -29.5t-28.5 -48t-11 -64.5q0 -48 21.5 -90.5t68.5 -64.5z" />
    <glyph glyph-name="sterling" unicode="&#xa3;" 
d="M310 278q0 -55 -26.5 -101t-73.5 -73v-3q9 1 17.5 0.5t17.5 -2.5q25 -5 48.5 -17.5t45 -25t39.5 -22.5t32 -10q13 0 19.5 7t8 17.5t0.5 24t-3 26.5q-2 15 7 24.5t23 9.5q18 0 31.5 -14.5t13.5 -34.5q0 -23 -13 -43t-35 -35t-50.5 -23.5t-58.5 -8.5q-35 0 -67.5 12
t-60.5 26t-48.5 26t-30.5 12q-14 0 -23.5 -9t-9.5 -23q0 -9 -18.5 -20.5t-44.5 -11.5q-14 0 -23.5 6t-9.5 20q0 17 10.5 30t27.5 22t38 15.5t43 10.5q10 4 20.5 10.5t19.5 20t16 36t9 58.5q0 21 -2 36.5t-5 26.5h-108q-5 8 -5 20q0 13 6 20h101q-5 29 -8 55.5t-3 58.5
q0 47 14 85.5t39 65.5t59.5 42t76.5 15q29 0 51.5 -5.5t33.5 -11.5t15 -16.5t3 -22.5q-1 -21 -10.5 -37t-18.5 -16q-11 0 -17 9q-42 60 -80 60q-30 -1 -47 -23t-17 -60q0 -28 3 -52.5t7 -48t9 -47.5t9 -51h133q8 -6 8 -20q0 -13 -8 -20h-130z" />
    <glyph glyph-name="currency" unicode="&#xa4;" 
d="M256 528q70 0 125 -40l41 51q17 -5 32 -18.5t17 -29.5l-45 -45q22 -26 34 -60t12 -72t-12 -72t-34 -60l45 -45q-2 -16 -17 -29.5t-32 -18.5l-41 51q-55 -40 -125 -40t-125 40l-41 -51q-17 5 -32 18.5t-17 29.5l45 45q-22 26 -34 60t-12 72t12 72t34 60l-45 45
q2 16 17 29.5t32 18.5l41 -51q55 40 125 40zM256 469q-29 0 -55.5 -12t-46.5 -33t-31.5 -49t-11.5 -60q0 -33 12 -61.5t32 -49.5t46 -33t55 -12q28 0 54.5 12t46.5 33t32 49.5t12 61.5q0 32 -12 60t-32 49t-46.5 33t-54.5 12z" />
    <glyph glyph-name="yen" unicode="&#xa5;" 
d="M323 319l-7 -19q-4 -11 -5 -24.5t-1 -31.5h149q6 -7 6 -19t-6 -19h-149v-72q0 -31 1 -50.5t5 -30.5t11.5 -15.5t20.5 -6.5l38 -5q5 -4 4.5 -15t-6.5 -14q-46 2 -75 2.5t-57 0.5h-24q-11 0 -24.5 -0.5t-30.5 -1t-39 -1.5q-6 3 -6.5 14t4.5 15l38 5q13 2 20.5 6.5
t11.5 15.5t5 30.5t1 50.5v72h-150q-5 8 -5 19t5 19h150q0 18 -2 31t-7 24l-10 20h-131q-5 8 -5 19q0 12 5 19h115l-89 179q-9 19 -15.5 30t-13.5 18t-15.5 10t-22.5 6l-20 3q-5 5 -4 15.5t6 12.5q31 -2 58.5 -2.5t56.5 -0.5q36 0 63.5 0.5t50.5 2.5q6 -2 6.5 -12.5
t-4.5 -15.5l-34 -9q-14 -3 -14 -13q0 -11 12 -38l50 -107q15 -32 28 -57.5t18 -35.5q5 8 14 25t24 52l60 137q9 21 9 29t-22 11l-36 6q-5 5 -4.5 14.5t7.5 13.5q48 -3 93 -3q40 0 78 3q8 -2 7.5 -12.5t-5.5 -15.5l-25 -4q-20 -3 -32.5 -17.5t-29.5 -49.5l-87 -175h118
q6 -8 6 -19t-6 -19h-136z" />
    <glyph glyph-name="brokenbar" unicode="&#xa6;" horiz-adv-x="255" 
d="M165 -175h-75v350h75v-350zM165 325h-75v350h75v-350z" />
    <glyph glyph-name="section" unicode="&#xa7;" horiz-adv-x="506" 
d="M232 232q67 -58 96 -111t26 -119q33 25 46.5 55.5t13.5 70.5q0 57 -32 109t-98 106q-39 32 -64.5 57t-40.5 49.5t-21 50.5t-6 61q-23 -17 -39 -45t-16 -62q0 -15 2.5 -36t15 -48t40 -61.5t77.5 -76.5zM175 158q-29 24 -54 49.5t-44 54t-29.5 61.5t-10.5 71q0 48 21.5 98
t59.5 91t89.5 67t111.5 26q25 0 41.5 -6t26 -14t13 -17t3.5 -16q0 -22 -13.5 -32t-30.5 -10q-8 0 -15.5 4.5t-13.5 9.5q-26 18 -44 25.5t-34 7.5q-21 0 -35 -13.5t-14 -33.5q0 -13 4.5 -27.5t18.5 -33.5t41 -44t71 -58q58 -44 94.5 -100t36.5 -138q0 -51 -20 -105t-57 -98
t-90 -72.5t-118 -28.5q-39 0 -62.5 16t-23.5 42q0 19 13 30.5t30 11.5q12 0 19.5 -5t15.5 -11q26 -20 45.5 -26.5t33.5 -6.5q20 0 36.5 11t16.5 42q0 20 -12 43t-30.5 46t-42.5 46t-48 43z" />
    <glyph glyph-name="dieresis" unicode="&#xa8;" horiz-adv-x="380" 
d="M288 480q-24 0 -40.5 13.5t-16.5 40.5q-1 25 15.5 41.5t41.5 16.5q24 0 39 -16.5t15 -37.5q0 -26 -15 -42t-39 -16zM94 480q-24 0 -40 13.5t-16 40.5q-1 25 15 41.5t41 16.5q24 0 39.5 -16.5t15.5 -37.5q0 -26 -15.5 -42t-39.5 -16z" />
    <glyph glyph-name="copyright" unicode="&#xa9;" horiz-adv-x="800" 
d="M434 522q32 0 59 -4.5t59 -11.5q0 -13 2 -38t5 -55q-4 -4 -11 -4.5t-12 3.5q-3 13 -9.5 27.5t-18 26.5t-29.5 19.5t-45 7.5t-52 -10t-44.5 -30t-31.5 -50t-12 -70t12 -71t32.5 -52t46 -31.5t52.5 -10.5q25 0 43 7.5t31 19t21.5 25.5t15.5 27q5 4 12.5 3.5t10.5 -6.5
q-3 -28 -12 -52t-14 -32q-10 -2 -20 -6q-9 -3 -35 -9t-55 -6q-38 0 -77 8.5t-68 28.5q-34 23 -57 60t-23 88q0 49 19 86t50.5 62t71.5 37.5t83 12.5zM400 633q-60 0 -112.5 -23.5t-91.5 -64.5t-61.5 -96t-22.5 -118q0 -64 22.5 -119.5t61.5 -96.5t91.5 -64.5t112.5 -23.5
t112.5 23.5t91.5 64.5t61.5 96.5t22.5 119.5q0 63 -22.5 118t-61.5 96t-91.5 64.5t-112.5 23.5zM400 -16q-75 0 -139.5 27t-111 74t-73 110t-26.5 135t26.5 135t73 110t111 74t139.5 27t139.5 -27t111 -74t73 -110t26.5 -135t-26.5 -135t-73 -110t-111 -74t-139.5 -27z" />
    <glyph glyph-name="ordfeminine" unicode="&#xaa;" horiz-adv-x="354" 
d="M201 364q2 16 -7 16q-12 0 -29 -5q-18 -5 -32 -16.5t-14 -31.5q0 -16 10.5 -29.5t32.5 -13.5q21 0 29 9.5t8 19.5zM205 445q0 22 -9.5 41t-36.5 19q-37 0 -40 -32q-3 -22 -17 -30q-8 -5 -23 -9t-28 -4q-11 0 -15 5t-4 12t5.5 19t25.5 29q9 8 23.5 16t31.5 14.5t35 10.5
t36 4q101 0 101 -82q0 -21 -3 -56.5t-3 -65.5q0 -55 31 -55q15 0 30 9q6 -1 9.5 -6t-0.5 -12q-6 -7 -15.5 -12.5t-20.5 -10t-22.5 -7t-20.5 -2.5q-13 0 -29.5 4t-27.5 15q-10 10 -16 10q-3 0 -21 -12q-10 -5 -27 -11t-34 -6q-45 0 -66.5 22.5t-21.5 48.5q0 24 11 39.5
t48 27.5q28 9 50 16t38 13q17 6 21 12t4 11z" />
    <glyph glyph-name="guillemotleft" unicode="&#xab;" horiz-adv-x="421" 
d="M304 219q-7 -13 0 -26l72 -150q-4 -11 -18 -14q-34 40 -68.5 80t-71.5 80q-8 9 -8 16q0 8 8 17q37 40 71.5 79.5t68.5 79.5q14 -2 18 -14zM139 219q-7 -13 0 -26l72 -150q-4 -11 -18 -14q-34 40 -68.5 80t-71.5 80q-8 9 -8 16q0 8 8 17q37 40 71.5 79.5t68.5 79.5
q14 -2 18 -14z" />
    <glyph glyph-name="logicalnot" unicode="&#xac;" 
d="M373 249h-310v63h385v-230h-75v167z" />
    <glyph glyph-name="hyphen" unicode="&#xad;" horiz-adv-x="320" 
d="M279 250q5 -5 7 -14t2 -19q0 -20 -9 -32l-238 -22q-5 5 -7 14.5t-2 17.5q0 18 9 33z" />
    <glyph glyph-name="hyphen" unicode="&#x2010;" horiz-adv-x="320" 
d="M279 250q5 -5 7 -14t2 -19q0 -20 -9 -32l-238 -22q-5 5 -7 14.5t-2 17.5q0 18 9 33z" />
    <glyph glyph-name="registered" unicode="&#xae;" horiz-adv-x="800" 
d="M400 633q-60 0 -112.5 -23.5t-91.5 -64.5t-61.5 -96t-22.5 -118q0 -64 22.5 -119.5t61.5 -96.5t91.5 -64.5t112.5 -23.5t112.5 23.5t91.5 64.5t61.5 96.5t22.5 119.5q0 63 -22.5 118t-61.5 96t-91.5 64.5t-112.5 23.5zM400 -16q-75 0 -139.5 27t-111 74t-73 110
t-26.5 135t26.5 135t73 110t111 74t139.5 27t139.5 -27t111 -74t73 -110t26.5 -135t-26.5 -135t-73 -110t-111 -74t-139.5 -27zM353 351q0 -14 5.5 -16.5t29.5 -2.5q15 0 28 4t23 15q17 20 17 56q0 32 -19 55.5t-54 23.5q-17 0 -23.5 -3.5t-6.5 -19.5v-112zM282 419
q0 21 -0.5 33.5t-3.5 19.5t-9.5 9.5t-18.5 4.5l-10 2q-3 4 -2.5 11t4.5 10q35 4 64 5t69 1q29 0 57 -3.5t50 -14t35.5 -30t13.5 -51.5q0 -18 -7 -32.5t-17 -25.5t-22.5 -18.5t-22.5 -11.5q-2 -5 3 -14q32 -55 55.5 -90.5t49.5 -56.5q8 -6 15.5 -8t14.5 -4q4 -6 0 -12
q-10 -2 -17 -2.5t-22 -0.5q-20 0 -35 4t-28.5 13.5t-26 24.5t-26.5 37q-8 14 -21 35t-24 40q-8 12 -34 12q-8 0 -10.5 -2t-2.5 -10v-54q0 -23 0.5 -37t3.5 -21.5t10 -11t20 -4.5l13 -1q3 -3 2.5 -11t-3.5 -10q-24 1 -42.5 1.5t-41.5 0.5q-20 0 -39 -0.5t-41 -1.5
q-5 2 -5.5 10t3.5 11l15 1q12 1 19 4t10 10.5t4 21.5t1 38v179z" />
    <glyph glyph-name="macron" unicode="&#xaf;" horiz-adv-x="380" 
d="M63 511q-8 11 -8 29t8 28h254q8 -10 8 -28t-8 -29h-254z" />
    <glyph glyph-name="degree" unicode="&#xb0;" horiz-adv-x="400" 
d="M200 599q-35 0 -56 -26.5t-21 -68.5t21 -68t56 -26t56 26t21 68t-21 68.5t-56 26.5zM200 640q29 0 54.5 -9.5t45 -27.5t30.5 -43t11 -56q0 -32 -11 -57.5t-30.5 -42.5t-45 -26t-54.5 -9t-54.5 9t-45 26t-30.5 42.5t-11 57.5q0 31 11 56t30.5 43t45 27.5t54.5 9.5z" />
    <glyph glyph-name="plusminus" unicode="&#xb1;" 
d="M218 98v141h-156v63h156v134h75v-134h155v-63h-155v-141h-75zM448 0h-386v63h386v-63z" />
    <glyph glyph-name="twosuperior" unicode="&#xb2;" horiz-adv-x="380" 
d="M250 315q29 0 47 5.5t32 28.5q14 7 23 -4q-6 -24 -17 -54t-20 -46q-20 1 -48 1.5t-54 0.5h-102q-27 0 -42.5 -0.5t-24.5 -1.5q-8 7 -5 16q10 8 19 16t20.5 18.5t25.5 24t34 33.5q16 15 31 33.5t27 39t19 43t7 46.5q0 32 -18.5 53t-47.5 21q-28 0 -48.5 -16t-36.5 -46
q-8 -3 -15.5 1.5t-7.5 12.5q25 51 63.5 75t83.5 24q63 0 96.5 -31.5t33.5 -79.5q0 -37 -25 -70t-77 -77l-28 -23q-20 -16 -26.5 -22.5t-6.5 -10.5t3.5 -7.5t16.5 -3.5h68z" />
    <glyph glyph-name="threesuperior" unicode="&#xb3;" horiz-adv-x="380" 
d="M105 208q-12 0 -24.5 2.5t-22.5 7.5t-16.5 14t-6.5 23q0 11 9 24t29 13q18 0 28 -12.5t15 -20.5q6 -8 13 -12t18 -4q12 0 26.5 7t27.5 21t22 34.5t9 46.5q0 38 -20 64t-52 26q-21 0 -37 -8t-29 -19q-8 5 -13 14t-1 17q15 6 37 14.5t43 21t35.5 29t14.5 37.5
q0 20 -13.5 35t-36.5 15q-21 0 -41.5 -14t-37.5 -40q-8 -2 -13.5 2t-6.5 12q20 40 56 61t80 21q51 0 78.5 -21.5t27.5 -53.5q0 -8 -3 -17t-11 -18.5t-23.5 -20t-40.5 -20.5q-5 -2 -1.5 -5.5t9.5 -3.5q19 0 38 -6.5t33.5 -19t23.5 -31t9 -42.5q0 -31 -18.5 -63.5t-60.5 -60.5
q-41 -27 -83 -38t-70 -11z" />
    <glyph glyph-name="acute" unicode="&#xb4;" horiz-adv-x="360" 
d="M113 441q-19 -1 -22 16l91 182q8 17 15.5 23.5t15.5 6.5q17 0 34 -14q13 -10 18 -17t5 -16t-7 -18t-18 -20z" />
    <glyph glyph-name="mu" unicode="&#xb5;" horiz-adv-x="522" 
d="M447 147q0 -21 0.5 -40.5t3 -34t7.5 -23.5t14 -9q22 0 43 6q6 -4 6.5 -16t-7.5 -18q-14 -2 -33.5 -5t-42 -7.5t-46 -10.5t-44.5 -13q-7 1 -9 10q2 9 3 19t0 18q-1 11 -10 11q-32 -19 -65 -33.5t-70 -14.5q-14 0 -27 3.5t-20 8.5q-4 0 -8 -4t-4 -18v-55q0 -21 6.5 -40
t14.5 -35t14.5 -28.5t6.5 -20.5q0 -11 -8 -23t-20 -21.5t-26.5 -15.5t-27.5 -6q-23 0 -23 31v513q0 26 -1 41.5t-4 24t-9 12.5t-15 7l-14 4q-5 4 -4.5 14t6.5 12q45 1 83.5 6.5t55.5 11.5q9 -2 10 -9q-2 -9 -2.5 -28.5t-0.5 -56.5v-154q0 -22 3 -42.5t11.5 -36.5t25 -25.5
t43.5 -9.5q18 0 36 6.5t31 18.5q8 8 10 18t2 38v151q0 24 -1.5 38t-6 22t-13.5 12t-23 8l-16 5q-5 4 -5 14t6 13q25 0 50 1.5t46 4t37 5.5t24 7q9 -2 10 -9q-3 -29 -3 -85v-167z" />
    <glyph glyph-name="paragraph" unicode="&#xb6;" horiz-adv-x="520" 
d="M387 127q0 -50 -6 -91t-21 -70t-41 -45t-67 -16q-17 0 -34.5 4.5t-31.5 14t-23 25t-9 37.5q0 23 10 36t20 20q20 2 37.5 -9.5t22.5 -24.5q-13 -13 -13 -34q0 -14 9 -23.5t23 -9.5q9 0 18.5 4.5t18 17t13.5 35t5 58.5v153q0 21 -5.5 28.5t-17.5 7.5q-45 0 -87 14.5
t-73.5 41.5t-50.5 64.5t-19 83.5q0 53 20.5 92.5t56.5 66t86 39.5t109 13q55 0 88 -1.5t53 -3.5q8 -3 8 -14q0 -10 -7 -15l-39 -6q-19 -3 -29.5 -6t-16 -9t-6.5 -16.5t-1 -26.5v-435z" />
    <glyph glyph-name="periodcentered" unicode="&#xb7;" horiz-adv-x="255" 
d="M128 139q-29 0 -47.5 19t-18.5 47t18.5 47t47.5 19q28 0 46.5 -19t18.5 -47t-18.5 -47t-46.5 -19z" />
    <glyph glyph-name="periodcentered" unicode="&#x22c5;" horiz-adv-x="255" 
d="M128 139q-29 0 -47.5 19t-18.5 47t18.5 47t47.5 19q28 0 46.5 -19t18.5 -47t-18.5 -47t-46.5 -19z" />
    <glyph glyph-name="periodcentered" unicode="&#x2219;" horiz-adv-x="255" 
d="M128 139q-29 0 -47.5 19t-18.5 47t18.5 47t47.5 19q28 0 46.5 -19t18.5 -47t-18.5 -47t-46.5 -19z" />
    <glyph glyph-name="cedilla" unicode="&#xb8;" horiz-adv-x="380" 
d="M255 0l-37 -50q-7 -8 -4.5 -11.5t13.5 -9.5q26 -14 41.5 -32.5t15.5 -46.5q0 -20 -9.5 -36.5t-26 -28t-37.5 -18t-44 -6.5q-33 0 -52 11t-19 31q0 13 8 22t22 9q9 0 17 -5.5t15.5 -12t14.5 -12t15 -5.5t16.5 8t8.5 24q0 10 -6.5 19.5t-16.5 18.5t-22.5 16t-25.5 13l-3 6
l72 96h44z" />
    <glyph glyph-name="onesuperior" unicode="&#xb9;" horiz-adv-x="380" 
d="M145 523q0 22 -4 37t-27 17l-30 3q-6 2 -6.5 12t4.5 13q20 3 43.5 7.5t45 9.5t37.5 9.5t22 7.5q8 2 10 -3q-1 -17 -1.5 -46.5t-0.5 -58.5v-194q0 -20 1 -32.5t5 -19t11.5 -9.5t20.5 -4l24 -2q5 -4 4.5 -13t-5.5 -12q-20 1 -50.5 1.5t-56.5 0.5q-27 0 -57.5 -0.5
t-50.5 -1.5q-5 3 -5.5 12t4.5 13l20 2q15 1 23 4t12.5 9.5t5.5 19t1 32.5v186z" />
    <glyph glyph-name="ordmasculine" unicode="&#xba;" horiz-adv-x="387" 
d="M129 405q0 -27 4.5 -51.5t13 -42.5t21 -28.5t29.5 -10.5t28.5 8t19 21.5t10.5 31.5t3 37q0 28 -3.5 53t-11.5 44t-21.5 30t-32.5 11q-26 0 -43 -25.5t-17 -77.5zM196 540q34 0 63 -10t50.5 -29.5t33.5 -47t12 -62.5q0 -38 -13 -66t-35.5 -47t-52 -28.5t-62.5 -9.5
t-62 9.5t-50.5 27.5t-34.5 44.5t-13 61.5q0 39 14 68t36.5 49t52 30t61.5 10z" />
    <glyph glyph-name="guillemotright" unicode="&#xbb;" horiz-adv-x="421" 
d="M210 367q4 12 18 14q34 -40 68.5 -79.5t71.5 -79.5q8 -9 8 -17q0 -7 -8 -16q-37 -40 -71.5 -80t-68.5 -80q-14 3 -18 14l72 150q6 13 0 26zM45 367q4 12 18 14q34 -40 68.5 -79.5t71.5 -79.5q8 -9 8 -17q0 -7 -8 -16q-37 -40 -71.5 -80t-68.5 -80q-14 3 -18 14l72 150
q6 13 0 26z" />
    <glyph glyph-name="onequarter" unicode="&#xbc;" horiz-adv-x="860" 
d="M653 628q-105 -168 -208 -334t-206 -334q-15 -1 -26 7t-15 19q105 168 208 334t206 334q13 2 26 -5.5t15 -20.5zM469 114q-4 3 -6.5 8t-0.5 11l207 280q5 6 9 9.5t11 3.5h26q8 0 10.5 -3.5t-5.5 -13.5l-194 -248q-11 -14 6 -14h86q10 0 12 3t2 15v84q0 10 5 14.5t13 6.5
q7 3 16 6l18 6t17 5t12 2q12 0 12 -10v-114q0 -12 2 -15t13 -3h46q8 -4 8 -17q0 -12 -8 -16h-46q-11 0 -13 -3t-2 -15v-6q0 -20 1 -32.5t5 -19t11.5 -9.5t20.5 -4l12 -2q5 -4 4.5 -13t-5.5 -12q-19 1 -44 1.5t-51 0.5q-27 0 -55.5 -0.5t-52.5 -1.5q-5 3 -5.5 12t4.5 13l20 2
q15 1 23 4t12.5 9.5t5.5 19t1 32.5v6q0 12 -2 15t-12 3h-149zM149 523q0 22 -4 37t-27 17l-30 3q-6 2 -6.5 12t4.5 13q20 3 43.5 7.5t45 9.5t37.5 9.5t22 7.5q8 2 10 -3q-1 -17 -1.5 -46.5t-0.5 -58.5v-194q0 -20 1 -32.5t5 -19t11.5 -9.5t20.5 -4l24 -2q5 -4 4.5 -13
t-5.5 -12q-20 1 -50.5 1.5t-56.5 0.5q-27 0 -57.5 -0.5t-50.5 -1.5q-5 3 -5.5 12t4.5 13l20 2q15 1 23 4t12.5 9.5t5.5 19t1 32.5v186z" />
    <glyph glyph-name="onehalf" unicode="&#xbd;" horiz-adv-x="860" 
d="M701 68q29 0 47 5.5t32 28.5q14 7 23 -4q-6 -24 -17 -54t-20 -46q-20 1 -48 1.5t-54 0.5h-102q-27 0 -42.5 -0.5t-24.5 -1.5q-8 7 -5 16q10 8 19 16t20.5 18.5t25.5 24t34 33.5q16 15 31 33.5t27 39t19 43t7 46.5q0 32 -18.5 53t-47.5 21q-28 0 -48.5 -16t-36.5 -46
q-8 -3 -15.5 1.5t-7.5 12.5q25 51 63.5 75t83.5 24q63 0 96.5 -31.5t33.5 -79.5q0 -37 -25 -70t-77 -77l-28 -23q-20 -16 -26.5 -22.5t-6.5 -10.5t3.5 -7.5t16.5 -3.5h68zM628 628q-105 -168 -208 -334t-206 -334q-15 -1 -26 7t-15 19q105 168 208 334t206 334q13 2 26 -5.5
t15 -20.5zM129 523q0 22 -4 37t-27 17l-30 3q-6 2 -6.5 12t4.5 13q20 3 43.5 7.5t45 9.5t37.5 9.5t22 7.5q8 2 10 -3q-1 -17 -1.5 -46.5t-0.5 -58.5v-194q0 -20 1 -32.5t5 -19t11.5 -9.5t20.5 -4l24 -2q5 -4 4.5 -13t-5.5 -12q-20 1 -50.5 1.5t-56.5 0.5q-27 0 -57.5 -0.5
t-50.5 -1.5q-5 3 -5.5 12t4.5 13l20 2q15 1 23 4t12.5 9.5t5.5 19t1 32.5v186z" />
    <glyph glyph-name="threequarters" unicode="&#xbe;" horiz-adv-x="860" 
d="M484 114q-4 3 -6.5 8t-0.5 11l207 280q5 6 9 9.5t11 3.5h26q8 0 10.5 -3.5t-5.5 -13.5l-194 -248q-11 -14 6 -14h86q10 0 12 3t2 15v84q0 10 5 14.5t13 6.5q7 3 16 6l18 6t17 5t12 2q12 0 12 -10v-114q0 -12 2 -15t13 -3h46q8 -4 8 -17q0 -12 -8 -16h-46q-11 0 -13 -3
t-2 -15v-6q0 -20 1 -32.5t5 -19t11.5 -9.5t20.5 -4l12 -2q5 -4 4.5 -13t-5.5 -12q-19 1 -44 1.5t-51 0.5q-27 0 -55.5 -0.5t-52.5 -1.5q-5 3 -5.5 12t4.5 13l20 2q15 1 23 4t12.5 9.5t5.5 19t1 32.5v6q0 12 -2 15t-12 3h-149zM667 628q-105 -168 -208 -334t-206 -334
q-15 -1 -26 7t-15 19q105 168 208 334t206 334q13 2 26 -5.5t15 -20.5zM117 208q-12 0 -24.5 2.5t-22.5 7.5t-16.5 14t-6.5 23q0 11 9 24t29 13q18 0 28 -12.5t15 -20.5q6 -8 13 -12t18 -4q12 0 26.5 7t27.5 21t22 34.5t9 46.5q0 38 -20 64t-52 26q-21 0 -37 -8t-29 -19
q-8 5 -13 14t-1 17q15 6 37 14.5t43 21t35.5 29t14.5 37.5q0 20 -13.5 35t-36.5 15q-21 0 -41.5 -14t-37.5 -40q-8 -2 -13.5 2t-6.5 12q20 40 56 61t80 21q51 0 78.5 -21.5t27.5 -53.5q0 -8 -3 -17t-11 -18.5t-23.5 -20t-40.5 -20.5q-5 -2 -1.5 -5.5t9.5 -3.5q19 0 38 -6.5
t33.5 -19t23.5 -31t9 -42.5q0 -31 -18.5 -63.5t-60.5 -60.5q-41 -27 -83 -38t-70 -11z" />
    <glyph glyph-name="questiondown" unicode="&#xbf;" horiz-adv-x="330" 
d="M204 394q29 0 47.5 -19t18.5 -47t-18.5 -47t-47.5 -19q-28 0 -46.5 19t-18.5 47t18.5 47t46.5 19zM230 -266q-39 0 -73 20t-59 50.5t-39 67.5t-14 71q0 41 17.5 67t46.5 40l54 26q26 13 36.5 24.5t10.5 25.5q0 12 -2 24t-7 26q4 7 12.5 9t15.5 -3q6 -9 13.5 -21.5
t14 -27.5t11 -30.5t4.5 -30.5q0 -17 -6 -30t-16 -23t-22.5 -17.5t-24.5 -13.5l-56 -25q-33 -15 -41 -31.5t-8 -26.5q0 -21 10.5 -34.5t29 -21.5t44.5 -11t57 -3q5 0 13 -3t15.5 -9t13 -15.5t5.5 -23.5q0 -22 -15 -36t-41 -14z" />
    <glyph glyph-name="Agrave" unicode="&#xc0;" horiz-adv-x="627" 
d="M142 762q-14 5 -21 10t-10 11q-3 10 11 37q8 15 15.5 20.5t15.5 5.5q10 0 31 -14l177 -120q2 -7 -2 -13t-10 -8zM328 290q21 0 25.5 4t-1.5 22l-42 120q-13 40 -18.5 57t-9.5 22h-2q-3 -5 -9.5 -24.5t-20.5 -54.5l-42 -117q-8 -22 -5 -25.5t21 -3.5h104zM208 245
q-10 0 -15 -0.5t-8 -3t-5.5 -8t-5.5 -15.5l-41 -120q-8 -22 -10.5 -34.5t-0.5 -19t10 -9t22 -4.5l29 -5q5 -5 4.5 -15.5t-6.5 -13.5q-24 2 -50 2q-25 0 -56 1q-47 0 -99 -3q-5 4 -5.5 13t4.5 16l30 5q22 3 33 12t22 34q9 20 21 50.5t28 71.5l137 356q10 24 15.5 42t3.5 31
q13 3 25.5 10.5t22 16t15.5 15t7 6.5q11 0 17 -8q12 -34 22.5 -68.5t22.5 -68.5l144 -419q9 -25 15 -40t14 -23.5t19.5 -12.5t30.5 -7l15 -3q6 -5 6 -15t-5 -14q-31 2 -61 2.5t-69 0.5q-32 0 -64 -1t-58 -2q-6 4 -7 14t4 15l22 3q27 3 31.5 12t-5.5 41l-47 136
q-4 10 -7 15.5t-7 8t-10.5 3t-16.5 0.5h-133z" />
    <glyph glyph-name="Aacute" unicode="&#xc1;" horiz-adv-x="627" 
d="M283 691q-6 2 -10 8t-2 13l177 120q21 14 31 14q8 0 15.5 -5.5t15.5 -20.5q14 -27 11 -37q-3 -6 -10 -11t-21 -10zM328 290q21 0 25.5 4t-1.5 22l-42 120q-13 40 -18.5 57t-9.5 22h-2q-3 -5 -9.5 -24.5t-20.5 -54.5l-42 -117q-8 -22 -5 -25.5t21 -3.5h104zM208 245
q-10 0 -15 -0.5t-8 -3t-5.5 -8t-5.5 -15.5l-41 -120q-8 -22 -10.5 -34.5t-0.5 -19t10 -9t22 -4.5l29 -5q5 -5 4.5 -15.5t-6.5 -13.5q-24 2 -50 2q-25 0 -56 1q-47 0 -99 -3q-5 4 -5.5 13t4.5 16l30 5q22 3 33 12t22 34q9 20 21 50.5t28 71.5l137 356q10 24 15.5 42t3.5 31
q13 3 25.5 10.5t22 16t15.5 15t7 6.5q11 0 17 -8q12 -34 22.5 -68.5t22.5 -68.5l144 -419q9 -25 15 -40t14 -23.5t19.5 -12.5t30.5 -7l15 -3q6 -5 6 -15t-5 -14q-31 2 -61 2.5t-69 0.5q-32 0 -64 -1t-58 -2q-6 4 -7 14t4 15l22 3q27 3 31.5 12t-5.5 41l-47 136
q-4 10 -7 15.5t-7 8t-10.5 3t-16.5 0.5h-133z" />
    <glyph glyph-name="Acircumflex" unicode="&#xc2;" horiz-adv-x="627" 
d="M486 707q0 -15 -13 -17l-134 73q-8 5 -18.5 4.5t-18.5 -4.5l-132 -73q-8 0 -11.5 5t-3.5 12l141 136q25 21 49 0zM328 290q21 0 25.5 4t-1.5 22l-42 120q-13 40 -18.5 57t-9.5 22h-2q-3 -5 -9.5 -24.5t-20.5 -54.5l-42 -117q-8 -22 -5 -25.5t21 -3.5h104zM208 245
q-10 0 -15 -0.5t-8 -3t-5.5 -8t-5.5 -15.5l-41 -120q-8 -22 -10.5 -34.5t-0.5 -19t10 -9t22 -4.5l29 -5q5 -5 4.5 -15.5t-6.5 -13.5q-24 2 -50 2q-25 0 -56 1q-47 0 -99 -3q-5 4 -5.5 13t4.5 16l30 5q22 3 33 12t22 34q9 20 21 50.5t28 71.5l137 356q10 24 15.5 42t3.5 31
q13 3 25.5 10.5t22 16t15.5 15t7 6.5q11 0 17 -8q12 -34 22.5 -68.5t22.5 -68.5l144 -419q9 -25 15 -40t14 -23.5t19.5 -12.5t30.5 -7l15 -3q6 -5 6 -15t-5 -14q-31 2 -61 2.5t-69 0.5q-32 0 -64 -1t-58 -2q-6 4 -7 14t4 15l22 3q27 3 31.5 12t-5.5 41l-47 136
q-4 10 -7 15.5t-7 8t-10.5 3t-16.5 0.5h-133z" />
    <glyph glyph-name="Atilde" unicode="&#xc3;" horiz-adv-x="627" 
d="M372 798q19 0 35.5 3.5t26.5 12.5q19 19 26 36q4 1 10 -0.5t9 -3.5q-6 -24 -19.5 -50t-24.5 -38q-11 -13 -22.5 -16.5t-30.5 -3.5h-115q-25 0 -39.5 -5t-27.5 -16q-8 -8 -16.5 -19.5t-14.5 -23.5q-4 -1 -9.5 0.5t-9.5 5.5q2 9 6 22.5t10 27.5t13 26.5t14 19.5
q14 15 28.5 18.5t35.5 3.5h115zM328 290q21 0 25.5 4t-1.5 22l-42 120q-13 40 -18.5 57t-9.5 22h-2q-3 -5 -9.5 -24.5t-20.5 -54.5l-42 -117q-8 -22 -5 -25.5t21 -3.5h104zM208 245q-10 0 -15 -0.5t-8 -3t-5.5 -8t-5.5 -15.5l-41 -120q-8 -22 -10.5 -34.5t-0.5 -19t10 -9
t22 -4.5l29 -5q5 -5 4.5 -15.5t-6.5 -13.5q-24 2 -50 2q-25 0 -56 1q-47 0 -99 -3q-5 4 -5.5 13t4.5 16l30 5q22 3 33 12t22 34q9 20 21 50.5t28 71.5l137 356q10 24 15.5 42t3.5 31q13 3 25.5 10.5t22 16t15.5 15t7 6.5q11 0 17 -8q12 -34 22.5 -68.5t22.5 -68.5l144 -419
q9 -25 15 -40t14 -23.5t19.5 -12.5t30.5 -7l15 -3q6 -5 6 -15t-5 -14q-31 2 -61 2.5t-69 0.5q-32 0 -64 -1t-58 -2q-6 4 -7 14t4 15l22 3q27 3 31.5 12t-5.5 41l-47 136q-4 10 -7 15.5t-7 8t-10.5 3t-16.5 0.5h-133z" />
    <glyph glyph-name="Adieresis" unicode="&#xc4;" horiz-adv-x="627" 
d="M413 702q-23 0 -39 13t-16 39q-1 24 15 40t40 16q23 0 38 -16t15 -36q0 -26 -15 -41t-38 -15zM218 702q-23 0 -39 13t-16 39q-1 24 15 40t40 16q23 0 38 -16t15 -36q0 -26 -15 -41t-38 -15zM328 290q21 0 25.5 4t-1.5 22l-42 120q-13 40 -18.5 57t-9.5 22h-2
q-3 -5 -9.5 -24.5t-20.5 -54.5l-42 -117q-8 -22 -5 -25.5t21 -3.5h104zM208 245q-10 0 -15 -0.5t-8 -3t-5.5 -8t-5.5 -15.5l-41 -120q-8 -22 -10.5 -34.5t-0.5 -19t10 -9t22 -4.5l29 -5q5 -5 4.5 -15.5t-6.5 -13.5q-24 2 -50 2q-25 0 -56 1q-47 0 -99 -3q-5 4 -5.5 13
t4.5 16l30 5q22 3 33 12t22 34q9 20 21 50.5t28 71.5l137 356q10 24 15.5 42t3.5 31q13 3 25.5 10.5t22 16t15.5 15t7 6.5q11 0 17 -8q12 -34 22.5 -68.5t22.5 -68.5l144 -419q9 -25 15 -40t14 -23.5t19.5 -12.5t30.5 -7l15 -3q6 -5 6 -15t-5 -14q-31 2 -61 2.5t-69 0.5
q-32 0 -64 -1t-58 -2q-6 4 -7 14t4 15l22 3q27 3 31.5 12t-5.5 41l-47 136q-4 10 -7 15.5t-7 8t-10.5 3t-16.5 0.5h-133z" />
    <glyph glyph-name="Aring" unicode="&#xc5;" horiz-adv-x="627" 
d="M328 290q21 0 25.5 4t-1.5 22l-42 120q-13 40 -18.5 57t-9.5 22h-2q-3 -5 -9.5 -24.5t-20.5 -54.5l-42 -117q-8 -22 -5 -25.5t21 -3.5h104zM541 112q9 -25 15 -40t14 -23.5t19.5 -12.5t30.5 -7l15 -3q6 -5 6 -15t-5 -14q-31 2 -61 2.5t-69 0.5q-32 0 -64 -1t-58 -2
q-6 4 -7 14t4 15l22 3q27 3 31.5 12t-5.5 41l-47 136q-4 10 -7 15.5t-7 8t-10.5 3t-16.5 0.5h-133q-10 0 -15 -0.5t-8 -3t-5.5 -8t-5.5 -15.5l-41 -120q-8 -22 -10.5 -34.5t-0.5 -19t10 -9t22 -4.5l29 -5q5 -5 4.5 -15.5t-6.5 -13.5q-24 2 -50 2q-25 0 -56 1q-47 0 -99 -3
q-5 4 -5.5 13t4.5 16l30 5q22 3 33 12t22 34q9 20 21 50.5t28 71.5l137 356q9 23 16 42t15 48q-33 11 -51.5 38.5t-18.5 59.5q0 20 7.5 38.5t22 33t34.5 23.5t45 9t45 -9t34.5 -23.5t22 -33t7.5 -38.5q0 -32 -17.5 -59t-49.5 -38q11 -27 19.5 -56.5t19.5 -58.5zM264 743
q0 -29 13.5 -48t38.5 -19t38.5 19t13.5 48q0 28 -13.5 47t-38.5 19t-38.5 -19t-13.5 -47z" />
    <glyph glyph-name="AE" unicode="&#xc6;" horiz-adv-x="846" 
d="M348 365q14 0 22.5 0.5t12.5 4t5 10.5t1 19v167q0 14 -1 31t-4 23h-4q-8 -10 -21 -34q-12 -23 -27 -52l-30 -58t-28 -54t-21 -41q-5 -8 -4 -12t13 -4h86zM389 286q0 12 -1 19t-5 10t-12 4t-23 1h-94q-12 0 -19 -1t-11.5 -4t-8 -9.5t-8.5 -16.5q-34 -69 -59.5 -121
t-45.5 -100q-6 -14 -3.5 -22.5t18.5 -11.5l53 -8q5 -6 4.5 -15.5t-7.5 -13.5q-54 3 -114 3q-24 0 -47 -0.5t-51 -2.5q-7 4 -7.5 13.5t4.5 15.5l29 5q10 1 18 4.5t15.5 11t15.5 20t18 32.5q34 64 69.5 129.5t68.5 128t62.5 119t52.5 102.5q6 12 10 21.5t4 13.5q0 8 -18 11
l-57 10q-7 5 -6.5 15t7.5 14q14 -1 30 -1.5t33 -0.5q18 -1 37 -1h42h252q48 0 86.5 0.5t48.5 2.5q1 -6 3 -22.5t4 -37t4.5 -42t4.5 -37.5q-3 -6 -14.5 -7.5t-17.5 3.5q-12 44 -25.5 64.5t-37.5 26.5q-17 5 -38.5 7t-41.5 2h-67q-16 0 -25 -1t-13 -7t-4.5 -18t-0.5 -33v-170
q0 -19 3.5 -22.5t20.5 -3.5h48q33 0 53 1t32 5t17.5 13t8.5 25l7 34q6 5 17 5t15 -6q-1 -20 -2 -46t-1 -54q0 -29 1 -55t2 -50q-4 -5 -15 -5.5t-17 4.5l-7 40q-3 16 -8.5 24.5t-17.5 13t-32 5.5t-53 1h-48q-17 0 -20.5 -4t-3.5 -23v-127q0 -38 3 -64.5t14 -39.5
q4 -5 10.5 -9t19 -7t32 -4.5t51.5 -1.5q48 -1 77.5 4.5t49 18.5t32 34t25.5 51q7 5 17 3.5t15 -9.5q-2 -16 -7 -36.5t-11 -41.5t-12.5 -39t-11.5 -28q-17 1 -40.5 1.5t-55.5 0.5q-32 1 -69 1h-82h-110q-33 0 -74.5 -0.5t-75.5 -2.5q-6 3 -6.5 13.5t4.5 15.5l37 4q18 2 29 5
t17 14t8 33t2 62v142z" />
    <glyph glyph-name="Ccedilla" unicode="&#xc7;" horiz-adv-x="694" 
d="M416 -15q-67 2 -124.5 18t-107.5 48q-61 40 -101.5 108.5t-40.5 166.5q0 88 35 155t91 110q56 42 128 63.5t148 21.5q43 0 90.5 -6.5t82.5 -15.5q9 -2 15 -3t13 -3q2 -17 4 -58.5t10 -97.5q-5 -6 -16 -6.5t-16 4.5q-6 24 -18.5 49.5t-35 47t-57 35.5t-83.5 14
q-48 0 -93.5 -17.5t-81.5 -53.5t-58 -91.5t-22 -132.5q0 -80 23 -139.5t60 -99t84 -59t95 -19.5q47 0 81.5 14t59.5 36t41 48.5t27 50.5q7 7 16.5 5t13.5 -9q-3 -25 -8.5 -49.5t-12.5 -44.5t-14.5 -35.5t-12.5 -22.5q-9 -2 -18 -4.5t-17 -4.5q-15 -5 -53 -13t-83 -10
l-26 -35q-7 -8 -4.5 -11.5t13.5 -9.5q26 -14 41.5 -32.5t15.5 -46.5q0 -20 -9.5 -36.5t-26 -28t-37.5 -18t-44 -6.5q-33 0 -52 11t-19 31q0 13 8 22t22 9q9 0 17 -5.5t15.5 -12t14.5 -12t15 -5.5t16.5 8t8.5 24q0 10 -6.5 19.5t-16.5 18.5t-22.5 16t-25.5 13l-3 6z" />
    <glyph glyph-name="Egrave" unicode="&#xc8;" horiz-adv-x="580" 
d="M188 762q-14 5 -21 10t-10 11q-3 10 11 37q8 15 15.5 20.5t15.5 5.5q10 0 31 -14l177 -120q2 -7 -2 -13t-10 -8zM119 516q0 40 -2 62t-8 33t-17 14.5t-29 6.5l-16 2q-5 5 -4.5 15.5t6.5 13.5q14 -1 29.5 -1.5t32.5 -0.5q17 -1 33 -1h34h191q48 0 86.5 0.5t48.5 2.5
q1 -6 3 -22.5t4 -37t4.5 -42t4.5 -37.5q-3 -6 -14.5 -7.5t-17.5 3.5q-12 44 -25.5 64.5t-37.5 26.5q-17 5 -38.5 7t-41.5 2h-67q-16 0 -25 -1t-13 -7t-4.5 -18t-0.5 -33v-169q0 -20 3.5 -23.5t20.5 -3.5h48q33 0 53 1t32 5t17.5 13t8.5 25l7 34q6 5 17 5t15 -6
q-1 -20 -2 -46t-1 -54q0 -29 1 -55t2 -50q-4 -5 -15 -5.5t-17 4.5l-7 40q-3 16 -8.5 24.5t-17.5 13t-32 5.5t-53 1h-48q-17 0 -20.5 -4t-3.5 -23v-127q0 -38 3 -64.5t14 -39.5q4 -5 10.5 -9t19 -7t32 -4.5t51.5 -1.5q48 -1 77.5 4.5t49 18.5t32 34t25.5 51q7 5 17 3.5
t15 -9.5q-2 -16 -7 -36.5t-11 -41.5t-12.5 -39t-11.5 -28q-17 1 -40.5 1.5t-55.5 0.5q-32 1 -69 1h-82h-114q-33 0 -74.5 -0.5t-75.5 -2.5q-6 3 -6.5 13.5t4.5 15.5l37 4q18 2 29 5t17 14t8 33t2 62v372z" />
    <glyph glyph-name="Eacute" unicode="&#xc9;" horiz-adv-x="580" 
d="M269 691q-6 2 -10 8t-2 13l177 120q21 14 31 14q8 0 15.5 -5.5t15.5 -20.5q14 -27 11 -37q-3 -6 -10 -11t-21 -10zM119 516q0 40 -2 62t-8 33t-17 14.5t-29 6.5l-16 2q-5 5 -4.5 15.5t6.5 13.5q14 -1 29.5 -1.5t32.5 -0.5q17 -1 33 -1h34h191q48 0 86.5 0.5t48.5 2.5
q1 -6 3 -22.5t4 -37t4.5 -42t4.5 -37.5q-3 -6 -14.5 -7.5t-17.5 3.5q-12 44 -25.5 64.5t-37.5 26.5q-17 5 -38.5 7t-41.5 2h-67q-16 0 -25 -1t-13 -7t-4.5 -18t-0.5 -33v-169q0 -20 3.5 -23.5t20.5 -3.5h48q33 0 53 1t32 5t17.5 13t8.5 25l7 34q6 5 17 5t15 -6
q-1 -20 -2 -46t-1 -54q0 -29 1 -55t2 -50q-4 -5 -15 -5.5t-17 4.5l-7 40q-3 16 -8.5 24.5t-17.5 13t-32 5.5t-53 1h-48q-17 0 -20.5 -4t-3.5 -23v-127q0 -38 3 -64.5t14 -39.5q4 -5 10.5 -9t19 -7t32 -4.5t51.5 -1.5q48 -1 77.5 4.5t49 18.5t32 34t25.5 51q7 5 17 3.5
t15 -9.5q-2 -16 -7 -36.5t-11 -41.5t-12.5 -39t-11.5 -28q-17 1 -40.5 1.5t-55.5 0.5q-32 1 -69 1h-82h-114q-33 0 -74.5 -0.5t-75.5 -2.5q-6 3 -6.5 13.5t4.5 15.5l37 4q18 2 29 5t17 14t8 33t2 62v372z" />
    <glyph glyph-name="Ecircumflex" unicode="&#xca;" horiz-adv-x="580" 
d="M471 707q0 -15 -13 -17l-134 73q-8 5 -18.5 4.5t-18.5 -4.5l-132 -73q-8 0 -11.5 5t-3.5 12l141 136q25 21 49 0zM119 516q0 40 -2 62t-8 33t-17 14.5t-29 6.5l-16 2q-5 5 -4.5 15.5t6.5 13.5q14 -1 29.5 -1.5t32.5 -0.5q17 -1 33 -1h34h191q48 0 86.5 0.5t48.5 2.5
q1 -6 3 -22.5t4 -37t4.5 -42t4.5 -37.5q-3 -6 -14.5 -7.5t-17.5 3.5q-12 44 -25.5 64.5t-37.5 26.5q-17 5 -38.5 7t-41.5 2h-67q-16 0 -25 -1t-13 -7t-4.5 -18t-0.5 -33v-169q0 -20 3.5 -23.5t20.5 -3.5h48q33 0 53 1t32 5t17.5 13t8.5 25l7 34q6 5 17 5t15 -6
q-1 -20 -2 -46t-1 -54q0 -29 1 -55t2 -50q-4 -5 -15 -5.5t-17 4.5l-7 40q-3 16 -8.5 24.5t-17.5 13t-32 5.5t-53 1h-48q-17 0 -20.5 -4t-3.5 -23v-127q0 -38 3 -64.5t14 -39.5q4 -5 10.5 -9t19 -7t32 -4.5t51.5 -1.5q48 -1 77.5 4.5t49 18.5t32 34t25.5 51q7 5 17 3.5
t15 -9.5q-2 -16 -7 -36.5t-11 -41.5t-12.5 -39t-11.5 -28q-17 1 -40.5 1.5t-55.5 0.5q-32 1 -69 1h-82h-114q-33 0 -74.5 -0.5t-75.5 -2.5q-6 3 -6.5 13.5t4.5 15.5l37 4q18 2 29 5t17 14t8 33t2 62v372z" />
    <glyph glyph-name="Edieresis" unicode="&#xcb;" horiz-adv-x="580" 
d="M389 702q-23 0 -39 13t-16 39q-1 24 15 40t40 16q23 0 38 -16t15 -36q0 -26 -15 -41t-38 -15zM194 702q-23 0 -39 13t-16 39q-1 24 15 40t40 16q23 0 38 -16t15 -36q0 -26 -15 -41t-38 -15zM119 516q0 40 -2 62t-8 33t-17 14.5t-29 6.5l-16 2q-5 5 -4.5 15.5t6.5 13.5
q14 -1 29.5 -1.5t32.5 -0.5q17 -1 33 -1h34h191q48 0 86.5 0.5t48.5 2.5q1 -6 3 -22.5t4 -37t4.5 -42t4.5 -37.5q-3 -6 -14.5 -7.5t-17.5 3.5q-12 44 -25.5 64.5t-37.5 26.5q-17 5 -38.5 7t-41.5 2h-67q-16 0 -25 -1t-13 -7t-4.5 -18t-0.5 -33v-169q0 -20 3.5 -23.5
t20.5 -3.5h48q33 0 53 1t32 5t17.5 13t8.5 25l7 34q6 5 17 5t15 -6q-1 -20 -2 -46t-1 -54q0 -29 1 -55t2 -50q-4 -5 -15 -5.5t-17 4.5l-7 40q-3 16 -8.5 24.5t-17.5 13t-32 5.5t-53 1h-48q-17 0 -20.5 -4t-3.5 -23v-127q0 -38 3 -64.5t14 -39.5q4 -5 10.5 -9t19 -7t32 -4.5
t51.5 -1.5q48 -1 77.5 4.5t49 18.5t32 34t25.5 51q7 5 17 3.5t15 -9.5q-2 -16 -7 -36.5t-11 -41.5t-12.5 -39t-11.5 -28q-17 1 -40.5 1.5t-55.5 0.5q-32 1 -69 1h-82h-114q-33 0 -74.5 -0.5t-75.5 -2.5q-6 3 -6.5 13.5t4.5 15.5l37 4q18 2 29 5t17 14t8 33t2 62v372z" />
    <glyph glyph-name="Igrave" unicode="&#xcc;" horiz-adv-x="354" 
d="M1 762q-14 5 -21 10t-10 11q-3 10 11 37q8 15 15.5 20.5t15.5 5.5q10 0 31 -14l177 -120q2 -7 -2 -13t-10 -8zM235 144q0 -40 2 -62t8 -33t17 -14.5t29 -5.5l22 -3q5 -5 4.5 -15.5t-6.5 -13.5q-66 3 -133 3q-33 0 -67.5 -0.5t-67.5 -2.5q-6 3 -6.5 13.5t4.5 15.5l22 3
q18 2 29 5.5t17 14.5t8 33t2 62v372q0 40 -2 62t-8 33t-17 14.5t-29 5.5l-22 3q-5 5 -4.5 15.5t6.5 13.5q66 -3 135 -3q67 0 133 3q6 -3 6.5 -13.5t-4.5 -15.5l-22 -3q-18 -2 -29 -5.5t-17 -14.5t-8 -33t-2 -62v-372z" />
    <glyph glyph-name="Iacute" unicode="&#xcd;" horiz-adv-x="354" 
d="M146 691q-6 2 -10 8t-2 13l177 120q21 14 31 14q8 0 15.5 -5.5t15.5 -20.5q14 -27 11 -37q-3 -6 -10 -11t-21 -10zM235 144q0 -40 2 -62t8 -33t17 -14.5t29 -5.5l22 -3q5 -5 4.5 -15.5t-6.5 -13.5q-66 3 -133 3q-33 0 -67.5 -0.5t-67.5 -2.5q-6 3 -6.5 13.5t4.5 15.5
l22 3q18 2 29 5.5t17 14.5t8 33t2 62v372q0 40 -2 62t-8 33t-17 14.5t-29 5.5l-22 3q-5 5 -4.5 15.5t6.5 13.5q66 -3 135 -3q67 0 133 3q6 -3 6.5 -13.5t-4.5 -15.5l-22 -3q-18 -2 -29 -5.5t-17 -14.5t-8 -33t-2 -62v-372z" />
    <glyph glyph-name="Icircumflex" unicode="&#xce;" horiz-adv-x="354" 
d="M343 707q0 -15 -13 -17l-134 73q-8 5 -18.5 4.5t-18.5 -4.5l-132 -73q-8 0 -11.5 5t-3.5 12l141 136q25 21 49 0zM235 144q0 -40 2 -62t8 -33t17 -14.5t29 -5.5l22 -3q5 -5 4.5 -15.5t-6.5 -13.5q-66 3 -133 3q-33 0 -67.5 -0.5t-67.5 -2.5q-6 3 -6.5 13.5t4.5 15.5l22 3
q18 2 29 5.5t17 14.5t8 33t2 62v372q0 40 -2 62t-8 33t-17 14.5t-29 5.5l-22 3q-5 5 -4.5 15.5t6.5 13.5q66 -3 135 -3q67 0 133 3q6 -3 6.5 -13.5t-4.5 -15.5l-22 -3q-18 -2 -29 -5.5t-17 -14.5t-8 -33t-2 -62v-372z" />
    <glyph glyph-name="Idieresis" unicode="&#xcf;" horiz-adv-x="354" 
d="M276 702q-23 0 -39 13t-16 39q-1 24 15 40t40 16q23 0 38 -16t15 -36q0 -26 -15 -41t-38 -15zM81 702q-23 0 -39 13t-16 39q-1 24 15 40t40 16q23 0 38 -16t15 -36q0 -26 -15 -41t-38 -15zM235 144q0 -40 2 -62t8 -33t17 -14.5t29 -5.5l22 -3q5 -5 4.5 -15.5t-6.5 -13.5
q-66 3 -133 3q-33 0 -67.5 -0.5t-67.5 -2.5q-6 3 -6.5 13.5t4.5 15.5l22 3q18 2 29 5.5t17 14.5t8 33t2 62v372q0 40 -2 62t-8 33t-17 14.5t-29 5.5l-22 3q-5 5 -4.5 15.5t6.5 13.5q66 -3 135 -3q67 0 133 3q6 -3 6.5 -13.5t-4.5 -15.5l-22 -3q-18 -2 -29 -5.5t-17 -14.5
t-8 -33t-2 -62v-372z" />
    <glyph glyph-name="Eth" unicode="&#xd0;" horiz-adv-x="790" 
d="M241 367h139q6 -8 6 -23q0 -14 -6 -22h-139v-139q0 -36 2.5 -64t14 -47t34 -28.5t62.5 -9.5q67 0 115.5 22.5t80 62t47 93.5t15.5 117q0 74 -20.5 129.5t-58 92t-89 54.5t-114.5 18q-32 0 -54 -4.5t-27 -9.5t-6.5 -22t-1.5 -52v-168zM125 322h-89q-6 8 -6 22q0 15 6 23
h89v143q0 36 -1 57.5t-5.5 33.5t-14 16.5t-27.5 6.5l-21 2q-5 4 -5 14t6 14q54 5 115 7t135 2q71 0 126 -7.5t110 -26.5q45 -17 82.5 -44.5t65 -65.5t42.5 -85.5t15 -103.5q0 -42 -10.5 -83t-32.5 -79t-56 -70t-80 -56q-54 -27 -116.5 -37.5t-131.5 -10.5q-23 0 -43 1t-38 2
q-36 3 -64 3q-29 0 -61.5 -0.5t-65.5 -2.5q-6 3 -6.5 13.5t4.5 15.5l22 3q18 2 29 5.5t17 14.5t8 33t2 62v178z" />
    <glyph glyph-name="Ntilde" unicode="&#xd1;" horiz-adv-x="780" 
d="M448 798q19 0 35.5 3.5t26.5 12.5q19 19 26 36q4 1 10 -0.5t9 -3.5q-6 -24 -19.5 -50t-24.5 -38q-11 -13 -22.5 -16.5t-30.5 -3.5h-115q-25 0 -39.5 -5t-27.5 -16q-8 -8 -16.5 -19.5t-14.5 -23.5q-4 -1 -9.5 0.5t-9.5 5.5q2 9 6 22.5t10 27.5t13 26.5t14 19.5
q14 15 28.5 18.5t35.5 3.5h115zM669 170v-37t0.5 -54t1 -52t1.5 -33q-6 -8 -15.5 -11.5t-18.5 -2.5q-6 8 -15 19t-22.5 27t-33 38t-46.5 53l-234 267q-49 55 -75 85t-39 41q-2 0 -2.5 -12t-0.5 -52v-195q0 -28 0.5 -58t2 -57t5.5 -49t10 -33q7 -11 19.5 -16.5t31.5 -8.5
l22 -3q7 -5 6.5 -16t-8.5 -13q-56 3 -114 3q-32 0 -55 -0.5t-49 -2.5q-6 4 -7 14t5 15l22 5q14 2 26.5 6.5t17.5 16.5t7.5 33t4 47.5t1.5 56.5v60v237q0 29 -0.5 48t-3.5 32t-9.5 22.5t-19.5 20.5q-8 7 -25 12.5t-28 7.5l-15 3q-5 5 -4.5 16t8.5 13q14 -2 31 -2.5t33 -0.5
h30h24q33 0 69 3q6 -16 27 -45t46.5 -60.5t50 -59.5t37.5 -42l100 -108q16 -17 39 -43t45.5 -51t39.5 -43.5t21 -20.5q2 2 2.5 7t0.5 17v195q0 28 -0.5 58t-2.5 57t-5.5 49t-10.5 33t-19 16.5t-31 8.5l-23 3q-7 5 -6.5 16t8.5 13q58 -3 115 -3q32 0 55 0.5t50 2.5
q6 -4 7 -14t-5 -15l-23 -5q-14 -2 -26 -6.5t-17 -16.5t-8 -33t-4.5 -47.5t-1.5 -56.5v-60v-239z" />
    <glyph glyph-name="Ograve" unicode="&#xd2;" horiz-adv-x="792" 
d="M225 762q-14 5 -21 10t-10 11q-3 10 11 37q8 15 15.5 20.5t15.5 5.5q10 0 31 -14l177 -120q2 -7 -2 -13t-10 -8zM387 636q-38 0 -75 -14.5t-67 -48.5t-48.5 -88.5t-18.5 -134.5q0 -52 12 -109.5t39 -105.5t71 -79.5t108 -31.5q43 0 80.5 16.5t65.5 51t44 89t16 129.5
q0 57 -13 115t-41 105t-70.5 76.5t-102.5 29.5zM400 676q87 0 152.5 -29t109.5 -77t66 -111t22 -131q0 -74 -26.5 -137t-73.5 -109t-111.5 -72t-140.5 -26q-85 0 -151 27.5t-111.5 74t-69.5 107.5t-24 128q0 76 26.5 141.5t74 112.5t113 74t144.5 27z" />
    <glyph glyph-name="Oacute" unicode="&#xd3;" horiz-adv-x="792" 
d="M355 691q-6 2 -10 8t-2 13l177 120q21 14 31 14q8 0 15.5 -5.5t15.5 -20.5q14 -27 11 -37q-3 -6 -10 -11t-21 -10zM387 636q-38 0 -75 -14.5t-67 -48.5t-48.5 -88.5t-18.5 -134.5q0 -52 12 -109.5t39 -105.5t71 -79.5t108 -31.5q43 0 80.5 16.5t65.5 51t44 89t16 129.5
q0 57 -13 115t-41 105t-70.5 76.5t-102.5 29.5zM400 676q87 0 152.5 -29t109.5 -77t66 -111t22 -131q0 -74 -26.5 -137t-73.5 -109t-111.5 -72t-140.5 -26q-85 0 -151 27.5t-111.5 74t-69.5 107.5t-24 128q0 76 26.5 141.5t74 112.5t113 74t144.5 27z" />
    <glyph glyph-name="Ocircumflex" unicode="&#xd4;" horiz-adv-x="792" 
d="M562 707q0 -15 -13 -17l-134 73q-8 5 -18.5 4.5t-18.5 -4.5l-132 -73q-8 0 -11.5 5t-3.5 12l141 136q25 21 49 0zM387 636q-38 0 -75 -14.5t-67 -48.5t-48.5 -88.5t-18.5 -134.5q0 -52 12 -109.5t39 -105.5t71 -79.5t108 -31.5q43 0 80.5 16.5t65.5 51t44 89t16 129.5
q0 57 -13 115t-41 105t-70.5 76.5t-102.5 29.5zM400 676q87 0 152.5 -29t109.5 -77t66 -111t22 -131q0 -74 -26.5 -137t-73.5 -109t-111.5 -72t-140.5 -26q-85 0 -151 27.5t-111.5 74t-69.5 107.5t-24 128q0 76 26.5 141.5t74 112.5t113 74t144.5 27z" />
    <glyph glyph-name="Otilde" unicode="&#xd5;" horiz-adv-x="792" 
d="M454 798q19 0 35.5 3.5t26.5 12.5q19 19 26 36q4 1 10 -0.5t9 -3.5q-6 -24 -19.5 -50t-24.5 -38q-11 -13 -22.5 -16.5t-30.5 -3.5h-115q-25 0 -39.5 -5t-27.5 -16q-8 -8 -16.5 -19.5t-14.5 -23.5q-4 -1 -9.5 0.5t-9.5 5.5q2 9 6 22.5t10 27.5t13 26.5t14 19.5
q14 15 28.5 18.5t35.5 3.5h115zM387 636q-38 0 -75 -14.5t-67 -48.5t-48.5 -88.5t-18.5 -134.5q0 -52 12 -109.5t39 -105.5t71 -79.5t108 -31.5q43 0 80.5 16.5t65.5 51t44 89t16 129.5q0 57 -13 115t-41 105t-70.5 76.5t-102.5 29.5zM400 676q87 0 152.5 -29t109.5 -77
t66 -111t22 -131q0 -74 -26.5 -137t-73.5 -109t-111.5 -72t-140.5 -26q-85 0 -151 27.5t-111.5 74t-69.5 107.5t-24 128q0 76 26.5 141.5t74 112.5t113 74t144.5 27z" />
    <glyph glyph-name="Odieresis" unicode="&#xd6;" horiz-adv-x="792" 
d="M495 702q-23 0 -39 13t-16 39q-1 24 15 40t40 16q23 0 38 -16t15 -36q0 -26 -15 -41t-38 -15zM300 702q-23 0 -39 13t-16 39q-1 24 15 40t40 16q23 0 38 -16t15 -36q0 -26 -15 -41t-38 -15zM387 636q-38 0 -75 -14.5t-67 -48.5t-48.5 -88.5t-18.5 -134.5q0 -52 12 -109.5
t39 -105.5t71 -79.5t108 -31.5q43 0 80.5 16.5t65.5 51t44 89t16 129.5q0 57 -13 115t-41 105t-70.5 76.5t-102.5 29.5zM400 676q87 0 152.5 -29t109.5 -77t66 -111t22 -131q0 -74 -26.5 -137t-73.5 -109t-111.5 -72t-140.5 -26q-85 0 -151 27.5t-111.5 74t-69.5 107.5
t-24 128q0 76 26.5 141.5t74 112.5t113 74t144.5 27z" />
    <glyph glyph-name="multiply" unicode="&#xd7;" 
d="M304 199l137 -138l-48 -50l-138 138l-137 -138l-48 50l136 137l-136 137l48 50l137 -137l138 139l48 -49z" />
    <glyph glyph-name="Oslash" unicode="&#xd8;" horiz-adv-x="792" 
d="M625 606q62 -48 93.5 -121t31.5 -157q0 -74 -26.5 -137t-73.5 -109t-111.5 -72t-140.5 -26q-57 0 -105.5 13t-88.5 36l-57 -77q-11 2 -21.5 9t-12.5 20l54 73q-61 48 -93 116.5t-32 146.5q0 76 26.5 141.5t74 112.5t113 74t144.5 27q55 0 102 -11.5t86 -33.5l49 65
q13 -2 24 -9t10 -19zM537 562q-28 34 -65 54t-85 20q-38 0 -75 -14.5t-67 -48.5t-48.5 -88.5t-18.5 -134.5q0 -51 11.5 -107t37.5 -104zM253 100q28 -35 66 -55.5t89 -20.5q43 0 80.5 16.5t65.5 51t44 89t16 129.5q0 56 -12.5 112t-38.5 101z" />
    <glyph glyph-name="Ugrave" unicode="&#xd9;" horiz-adv-x="744" 
d="M251 762q-14 5 -21 10t-10 11q-3 10 11 37q8 15 15.5 20.5t15.5 5.5q10 0 31 -14l177 -120q2 -7 -2 -13t-10 -8zM113 516q0 40 -2 62t-8 33t-17 14.5t-29 6.5l-17 3q-5 5 -4.5 15t6.5 13q30 -2 63 -2.5t66 -0.5q68 0 134 3q6 -3 6.5 -13t-4.5 -15l-22 -3q-18 -3 -29 -6.5
t-17 -14.5t-8 -33t-2 -62v-229q0 -52 8.5 -98t29.5 -80.5t56 -55t87 -20.5q49 0 84 18t57.5 50.5t33 79t10.5 103.5v125q0 28 -0.5 58.5t-2.5 57.5t-5.5 48.5t-10.5 32.5t-19 17t-31 9l-20 3q-7 5 -6.5 15.5t8.5 12.5q51 -3 111 -3q32 0 55 0.5t51 2.5q6 -4 7 -13.5
t-5 -14.5l-22 -5q-14 -3 -26.5 -7.5t-17.5 -16.5q-5 -11 -8 -32t-4.5 -48t-1.5 -57v-60v-119q0 -69 -13.5 -129t-52.5 -102t-91.5 -58.5t-104.5 -16.5q-71 0 -121 15.5t-85 48.5q-66 63 -66 214v254z" />
    <glyph glyph-name="Uacute" unicode="&#xda;" horiz-adv-x="744" 
d="M366 691q-6 2 -10 8t-2 13l177 120q21 14 31 14q8 0 15.5 -5.5t15.5 -20.5q14 -27 11 -37q-3 -6 -10 -11t-21 -10zM113 516q0 40 -2 62t-8 33t-17 14.5t-29 6.5l-17 3q-5 5 -4.5 15t6.5 13q30 -2 63 -2.5t66 -0.5q68 0 134 3q6 -3 6.5 -13t-4.5 -15l-22 -3
q-18 -3 -29 -6.5t-17 -14.5t-8 -33t-2 -62v-229q0 -52 8.5 -98t29.5 -80.5t56 -55t87 -20.5q49 0 84 18t57.5 50.5t33 79t10.5 103.5v125q0 28 -0.5 58.5t-2.5 57.5t-5.5 48.5t-10.5 32.5t-19 17t-31 9l-20 3q-7 5 -6.5 15.5t8.5 12.5q51 -3 111 -3q32 0 55 0.5t51 2.5
q6 -4 7 -13.5t-5 -14.5l-22 -5q-14 -3 -26.5 -7.5t-17.5 -16.5q-5 -11 -8 -32t-4.5 -48t-1.5 -57v-60v-119q0 -69 -13.5 -129t-52.5 -102t-91.5 -58.5t-104.5 -16.5q-71 0 -121 15.5t-85 48.5q-66 63 -66 214v254z" />
    <glyph glyph-name="Ucircumflex" unicode="&#xdb;" horiz-adv-x="744" 
d="M563 707q0 -15 -13 -17l-134 73q-8 5 -18.5 4.5t-18.5 -4.5l-132 -73q-8 0 -11.5 5t-3.5 12l141 136q25 21 49 0zM113 516q0 40 -2 62t-8 33t-17 14.5t-29 6.5l-17 3q-5 5 -4.5 15t6.5 13q30 -2 63 -2.5t66 -0.5q68 0 134 3q6 -3 6.5 -13t-4.5 -15l-22 -3
q-18 -3 -29 -6.5t-17 -14.5t-8 -33t-2 -62v-229q0 -52 8.5 -98t29.5 -80.5t56 -55t87 -20.5q49 0 84 18t57.5 50.5t33 79t10.5 103.5v125q0 28 -0.5 58.5t-2.5 57.5t-5.5 48.5t-10.5 32.5t-19 17t-31 9l-20 3q-7 5 -6.5 15.5t8.5 12.5q51 -3 111 -3q32 0 55 0.5t51 2.5
q6 -4 7 -13.5t-5 -14.5l-22 -5q-14 -3 -26.5 -7.5t-17.5 -16.5q-5 -11 -8 -32t-4.5 -48t-1.5 -57v-60v-119q0 -69 -13.5 -129t-52.5 -102t-91.5 -58.5t-104.5 -16.5q-71 0 -121 15.5t-85 48.5q-66 63 -66 214v254z" />
    <glyph glyph-name="Udieresis" unicode="&#xdc;" horiz-adv-x="744" 
d="M501 702q-23 0 -39 13t-16 39q-1 24 15 40t40 16q23 0 38 -16t15 -36q0 -26 -15 -41t-38 -15zM306 702q-23 0 -39 13t-16 39q-1 24 15 40t40 16q23 0 38 -16t15 -36q0 -26 -15 -41t-38 -15zM113 516q0 40 -2 62t-8 33t-17 14.5t-29 6.5l-17 3q-5 5 -4.5 15t6.5 13
q30 -2 63 -2.5t66 -0.5q68 0 134 3q6 -3 6.5 -13t-4.5 -15l-22 -3q-18 -3 -29 -6.5t-17 -14.5t-8 -33t-2 -62v-229q0 -52 8.5 -98t29.5 -80.5t56 -55t87 -20.5q49 0 84 18t57.5 50.5t33 79t10.5 103.5v125q0 28 -0.5 58.5t-2.5 57.5t-5.5 48.5t-10.5 32.5t-19 17t-31 9
l-20 3q-7 5 -6.5 15.5t8.5 12.5q51 -3 111 -3q32 0 55 0.5t51 2.5q6 -4 7 -13.5t-5 -14.5l-22 -5q-14 -3 -26.5 -7.5t-17.5 -16.5q-5 -11 -8 -32t-4.5 -48t-1.5 -57v-60v-119q0 -69 -13.5 -129t-52.5 -102t-91.5 -58.5t-104.5 -16.5q-71 0 -121 15.5t-85 48.5
q-66 63 -66 214v254z" />
    <glyph glyph-name="Yacute" unicode="&#xdd;" horiz-adv-x="590" 
d="M304 691q-6 2 -10 8t-2 13l177 120q21 14 31 14q8 0 15.5 -5.5t15.5 -20.5q14 -27 11 -37q-3 -6 -10 -11t-21 -10zM241 203q0 21 -1 35.5t-4.5 27.5t-10 27t-16.5 34l-120 237q-8 16 -14.5 27t-14.5 18t-18.5 11.5t-27.5 7.5l-26 6q-5 5 -3.5 16t7.5 13q64 -3 126 -3h35
t37 0.5t32.5 1t23.5 1.5q6 -3 7 -13.5t-5 -15.5l-30 -5q-12 -2 -16.5 -4.5t-4.5 -8.5t3.5 -16.5t14.5 -35.5q30 -65 58 -125t58 -115q31 57 59.5 110.5t57.5 110.5q13 26 20 42.5t7 24.5t-6 10.5t-17 4.5l-30 7q-5 5 -5 15t8 14q33 -2 57.5 -2.5t47.5 -0.5q47 0 95 3
q7 -4 7 -14q0 -9 -5 -15l-29 -6q-17 -3 -29 -9t-23 -18.5t-24.5 -33.5t-32.5 -54q-26 -43 -49 -84.5t-46 -83.5q-11 -20 -18.5 -34.5t-11.5 -30t-5.5 -33.5t-1.5 -43v-60q0 -40 2 -62t8.5 -33t18 -14t29.5 -5l38 -4q5 -5 4.5 -15.5t-6.5 -13.5q-47 2 -82.5 2.5t-68.5 0.5
q-35 0 -69.5 -0.5t-75.5 -2.5q-6 3 -6.5 13.5t4.5 15.5l32 4q18 2 29 5t17 14t8 33t2 62v59z" />
    <glyph glyph-name="Thorn" unicode="&#xde;" horiz-adv-x="582" 
d="M324 527q107 0 167 -47.5t60 -129.5q0 -45 -18.5 -78t-49 -54.5t-69.5 -32.5t-80 -11h-22q-4 4 -4.5 12t3.5 13q61 13 88 54t27 94q0 29 -8 54.5t-24.5 44.5t-42 30t-60.5 11q-21 0 -32.5 -1.5t-16.5 -6t-6 -12t-1 -19.5v-304q0 -40 2 -62t8 -33t17 -14t29 -5l34 -4
q5 -5 4.5 -15.5t-6.5 -13.5q-42 2 -77 2.5t-68 0.5q-69 0 -135 -3q-6 3 -6.5 13.5t4.5 15.5l22 3q18 2 29 5.5t17 14.5t8 33t2 62v372q0 40 -2 62t-8 33t-17 14.5t-29 6.5l-22 4q-5 4 -4.5 14t6.5 13q33 -2 67.5 -2.5t67.5 -0.5q67 0 133 3q6 -3 6.5 -13t-4.5 -14l-22 -4
q-18 -3 -29 -6t-17 -13.5t-8 -30t-2 -55.5h89z" />
    <glyph glyph-name="germandbls" unicode="&#xdf;" horiz-adv-x="555" 
d="M193 119q0 -28 1 -44.5t5 -26t12 -13.5t21 -5l29 -4q5 -5 4.5 -15.5t-6.5 -13.5q-53 3 -121 3q-24 0 -50 -0.5t-58 -2.5q-6 3 -6.5 13.5t4.5 15.5l22 3q13 2 20.5 6t11.5 13.5t5 26t1 44.5v201q0 20 -2.5 25t-15.5 5h-36q-6 3 -7 10.5t4 12.5l43 22q5 3 9.5 7.5t4.5 11.5
q0 38 7.5 82t27.5 86q12 25 31 48.5t45 42.5t59.5 30.5t75.5 11.5q43 0 73.5 -12t49.5 -31t28 -42.5t9 -47.5q0 -26 -6 -45.5t-16.5 -35t-23.5 -29t-28 -25.5l-20 -15q-22 -17 -30.5 -34t-8.5 -36q0 -28 23.5 -53t58.5 -51q15 -11 30 -24.5t27 -30.5t20 -38.5t8 -46.5
q0 -33 -11.5 -58t-31.5 -41.5t-46.5 -24.5t-56.5 -8q-20 0 -37 2.5t-30.5 9t-21 18t-7.5 29.5q0 17 7 30.5t21 13.5q8 0 16.5 -10t19 -21.5t23 -21.5t28.5 -10q13 0 26.5 10t13.5 33q0 28 -17.5 52t-52.5 47q-45 30 -71 65.5t-26 77.5q0 22 7 40t18 33t24 28l25 25
q20 20 33.5 49.5t13.5 61.5q0 62 -25 94.5t-61 32.5q-27 0 -48.5 -19t-36.5 -53.5t-23 -82.5t-8 -107v-294z" />
    <glyph glyph-name="agrave" unicode="&#xe0;" horiz-adv-x="420" 
d="M96 584q-11 11 -18 20t-7 18t5 16t18 17q17 14 34 14q8 0 15.5 -6.5t15.5 -23.5l91 -182q-3 -17 -22 -16zM245 161q0 17 -8 17q-6 0 -18 -3.5t-26 -8.5q-11 -4 -20.5 -9t-17 -12.5t-12 -18.5t-4.5 -27q0 -20 13.5 -39t42.5 -19q27 0 37 15t11 33zM343 127q-5 -88 48 -88
q13 0 22.5 5.5t11.5 5.5q4 0 7.5 -6.5t1.5 -13.5q-8 -11 -20 -19t-26 -13.5t-28 -8.5t-26 -3q-19 0 -38.5 6t-33.5 22l-8.5 8.5t-7.5 3.5t-10 -3.5t-17 -10.5q-14 -9 -36 -17.5t-49 -8.5q-26 0 -45 8t-31.5 21.5t-19 31t-6.5 36.5q0 13 3.5 26t12.5 25t25 22.5t42 19.5
t54 19t56 21q15 5 19 11.5t4 14.5l1 26q1 19 -1.5 36.5t-9.5 30.5t-19.5 20.5t-30.5 7.5q-21 0 -35.5 -11t-17.5 -33q-3 -26 -19 -36q-11 -7 -29 -12.5t-35 -5.5q-19 0 -19 16q0 9 7 25t32 39q12 11 30 22t39.5 20t43.5 15t41 6q60 0 93.5 -29.5t30.5 -95.5z" />
    <glyph glyph-name="aacute" unicode="&#xe1;" horiz-adv-x="420" 
d="M203 441q-19 -1 -22 16l91 182q8 17 15.5 23.5t15.5 6.5q17 0 34 -14q13 -10 18 -17t5 -16t-7 -18t-18 -20zM245 161q0 17 -8 17q-6 0 -18 -3.5t-26 -8.5q-11 -4 -20.5 -9t-17 -12.5t-12 -18.5t-4.5 -27q0 -20 13.5 -39t42.5 -19q27 0 37 15t11 33zM343 127
q-5 -88 48 -88q13 0 22.5 5.5t11.5 5.5q4 0 7.5 -6.5t1.5 -13.5q-8 -11 -20 -19t-26 -13.5t-28 -8.5t-26 -3q-19 0 -38.5 6t-33.5 22l-8.5 8.5t-7.5 3.5t-10 -3.5t-17 -10.5q-14 -9 -36 -17.5t-49 -8.5q-26 0 -45 8t-31.5 21.5t-19 31t-6.5 36.5q0 13 3.5 26t12.5 25
t25 22.5t42 19.5t54 19t56 21q15 5 19 11.5t4 14.5l1 26q1 19 -1.5 36.5t-9.5 30.5t-19.5 20.5t-30.5 7.5q-21 0 -35.5 -11t-17.5 -33q-3 -26 -19 -36q-11 -7 -29 -12.5t-35 -5.5q-19 0 -19 16q0 9 7 25t32 39q12 11 30 22t39.5 20t43.5 15t41 6q60 0 93.5 -29.5t30.5 -95.5
z" />
    <glyph glyph-name="acircumflex" unicode="&#xe2;" horiz-adv-x="420" 
d="M190 665q5 8 11 11t11 3q4 0 10.5 -2.5t11.5 -11.5l108 -203q-3 -17 -20 -17l-86 105q-20 25 -27 26q-4 -1 -10 -8.5t-17 -21.5l-83 -103q-17 -2 -20 15zM245 161q0 17 -8 17q-6 0 -18 -3.5t-26 -8.5q-11 -4 -20.5 -9t-17 -12.5t-12 -18.5t-4.5 -27q0 -20 13.5 -39
t42.5 -19q27 0 37 15t11 33zM343 127q-5 -88 48 -88q13 0 22.5 5.5t11.5 5.5q4 0 7.5 -6.5t1.5 -13.5q-8 -11 -20 -19t-26 -13.5t-28 -8.5t-26 -3q-19 0 -38.5 6t-33.5 22l-8.5 8.5t-7.5 3.5t-10 -3.5t-17 -10.5q-14 -9 -36 -17.5t-49 -8.5q-26 0 -45 8t-31.5 21.5t-19 31
t-6.5 36.5q0 13 3.5 26t12.5 25t25 22.5t42 19.5t54 19t56 21q15 5 19 11.5t4 14.5l1 26q1 19 -1.5 36.5t-9.5 30.5t-19.5 20.5t-30.5 7.5q-21 0 -35.5 -11t-17.5 -33q-3 -26 -19 -36q-11 -7 -29 -12.5t-35 -5.5q-19 0 -19 16q0 9 7 25t32 39q12 11 30 22t39.5 20t43.5 15
t41 6q60 0 93.5 -29.5t30.5 -95.5z" />
    <glyph glyph-name="atilde" unicode="&#xe3;" horiz-adv-x="420" 
d="M268 567q19 0 35.5 3.5t26.5 12.5q19 19 26 36q4 2 10 1t9 -5q-3 -10 -8 -22t-11 -23.5t-12.5 -21.5t-12.5 -16q-11 -13 -22.5 -16.5t-30.5 -3.5h-115q-25 0 -39.5 -5t-27.5 -16q-8 -8 -16.5 -19.5t-14.5 -23.5q-5 -2 -10.5 -0.5t-8.5 6.5q2 7 6 19.5t10 26t12.5 26
t13.5 19.5q14 15 29 18.5t36 3.5h115zM245 161q0 17 -8 17q-6 0 -18 -3.5t-26 -8.5q-11 -4 -20.5 -9t-17 -12.5t-12 -18.5t-4.5 -27q0 -20 13.5 -39t42.5 -19q27 0 37 15t11 33zM343 127q-5 -88 48 -88q13 0 22.5 5.5t11.5 5.5q4 0 7.5 -6.5t1.5 -13.5q-8 -11 -20 -19
t-26 -13.5t-28 -8.5t-26 -3q-19 0 -38.5 6t-33.5 22l-8.5 8.5t-7.5 3.5t-10 -3.5t-17 -10.5q-14 -9 -36 -17.5t-49 -8.5q-26 0 -45 8t-31.5 21.5t-19 31t-6.5 36.5q0 13 3.5 26t12.5 25t25 22.5t42 19.5t54 19t56 21q15 5 19 11.5t4 14.5l1 26q1 19 -1.5 36.5t-9.5 30.5
t-19.5 20.5t-30.5 7.5q-21 0 -35.5 -11t-17.5 -33q-3 -26 -19 -36q-11 -7 -29 -12.5t-35 -5.5q-19 0 -19 16q0 9 7 25t32 39q12 11 30 22t39.5 20t43.5 15t41 6q60 0 93.5 -29.5t30.5 -95.5z" />
    <glyph glyph-name="adieresis" unicode="&#xe4;" horiz-adv-x="420" 
d="M308 480q-24 0 -40.5 13.5t-16.5 40.5q-1 25 15.5 41.5t41.5 16.5q24 0 39 -16.5t15 -37.5q0 -26 -15 -42t-39 -16zM114 480q-24 0 -40 13.5t-16 40.5q-1 25 15 41.5t41 16.5q24 0 39.5 -16.5t15.5 -37.5q0 -26 -15.5 -42t-39.5 -16zM245 161q0 17 -8 17q-6 0 -18 -3.5
t-26 -8.5q-11 -4 -20.5 -9t-17 -12.5t-12 -18.5t-4.5 -27q0 -20 13.5 -39t42.5 -19q27 0 37 15t11 33zM343 127q-5 -88 48 -88q13 0 22.5 5.5t11.5 5.5q4 0 7.5 -6.5t1.5 -13.5q-8 -11 -20 -19t-26 -13.5t-28 -8.5t-26 -3q-19 0 -38.5 6t-33.5 22l-8.5 8.5t-7.5 3.5
t-10 -3.5t-17 -10.5q-14 -9 -36 -17.5t-49 -8.5q-26 0 -45 8t-31.5 21.5t-19 31t-6.5 36.5q0 13 3.5 26t12.5 25t25 22.5t42 19.5t54 19t56 21q15 5 19 11.5t4 14.5l1 26q1 19 -1.5 36.5t-9.5 30.5t-19.5 20.5t-30.5 7.5q-21 0 -35.5 -11t-17.5 -33q-3 -26 -19 -36
q-11 -7 -29 -12.5t-35 -5.5q-19 0 -19 16q0 9 7 25t32 39q12 11 30 22t39.5 20t43.5 15t41 6q60 0 93.5 -29.5t30.5 -95.5z" />
    <glyph glyph-name="aring" unicode="&#xe5;" horiz-adv-x="420" 
d="M158 568q0 -29 13.5 -48t38.5 -19t38.5 19t13.5 48q0 28 -13.5 47t-38.5 19t-38.5 -19t-13.5 -47zM101 568q0 20 7.5 38.5t22 33t34.5 23.5t45 9t45 -9t34.5 -23.5t22 -33t7.5 -38.5t-7.5 -39t-22 -33.5t-34.5 -23.5t-45 -9t-45 9t-34.5 23.5t-22 33.5t-7.5 39zM245 161
q0 17 -8 17q-6 0 -18 -3.5t-26 -8.5q-11 -4 -20.5 -9t-17 -12.5t-12 -18.5t-4.5 -27q0 -20 13.5 -39t42.5 -19q27 0 37 15t11 33zM343 127q-5 -88 48 -88q13 0 22.5 5.5t11.5 5.5q4 0 7.5 -6.5t1.5 -13.5q-8 -11 -20 -19t-26 -13.5t-28 -8.5t-26 -3q-19 0 -38.5 6t-33.5 22
l-8.5 8.5t-7.5 3.5t-10 -3.5t-17 -10.5q-14 -9 -36 -17.5t-49 -8.5q-26 0 -45 8t-31.5 21.5t-19 31t-6.5 36.5q0 13 3.5 26t12.5 25t25 22.5t42 19.5t54 19t56 21q15 5 19 11.5t4 14.5l1 26q1 19 -1.5 36.5t-9.5 30.5t-19.5 20.5t-30.5 7.5q-21 0 -35.5 -11t-17.5 -33
q-3 -26 -19 -36q-11 -7 -29 -12.5t-35 -5.5q-19 0 -19 16q0 9 7 25t32 39q12 11 30 22t39.5 20t43.5 15t41 6q60 0 93.5 -29.5t30.5 -95.5z" />
    <glyph glyph-name="ae" unicode="&#xe6;" horiz-adv-x="615" 
d="M247 158q0 18 -8 18q-6 0 -17.5 -3.5t-28.5 -9.5q-23 -8 -39.5 -20.5t-16.5 -41.5q0 -20 13.5 -39.5t44.5 -19.5q17 0 34.5 11t17.5 32v73zM475 280q20 6 26.5 11.5t6.5 11.5q0 10 -4.5 21.5t-13.5 21t-21.5 16t-28.5 6.5q-22 0 -40 -10t-30.5 -26t-19.5 -36t-7 -40v-6
q0 -4 4.5 -5.5t20.5 3.5zM247 268q1 18 -1 35t-9 30.5t-19.5 21.5t-33.5 8q-20 0 -35.5 -10.5t-19.5 -30.5q-2 -14 -5 -23t-11 -14q-9 -7 -29 -13.5t-35 -6.5q-8 0 -12 4.5t-4 10.5q0 11 7 26.5t32 38.5q11 11 29 22t40 20t44.5 15t42.5 6q13 0 28 -2t29 -7.5t25.5 -14.5
t17.5 -23q32 25 65 36t71 11q33 0 58.5 -10t43 -26t26.5 -36t9 -40q0 -13 -6.5 -18.5t-23.5 -10.5l-208 -61q-13 -4 -16.5 -7t-3.5 -8v-10q0 -28 11.5 -51.5t30 -40.5t42 -26.5t48.5 -9.5q70 0 108 52q8 2 14 -2t6 -12q-23 -52 -67 -78.5t-102 -26.5q-55 0 -91 20t-56 48
l-34 -23q-68 -45 -119 -45q-27 0 -46 8t-31.5 21.5t-18.5 30.5t-6 34q0 26 15.5 51t66.5 43l114 39q12 4 15.5 8t3.5 13v34z" />
    <glyph glyph-name="ccedilla" unicode="&#xe7;" horiz-adv-x="402" 
d="M231 -14h-3q-40 0 -76.5 14.5t-62.5 39.5q-26 26 -42 63t-16 81t16 84.5t47 71.5t77 49.5t106 18.5q22 0 43.5 -3t42.5 -11q20 -18 20 -51q0 -24 -9.5 -35.5t-15.5 -11.5q-5 0 -9.5 2t-9.5 9q-17 22 -39.5 41.5t-51.5 19.5q-21 0 -42 -10t-37.5 -29.5t-26.5 -47.5
t-10 -63q0 -30 9.5 -58.5t28 -50.5t45 -35.5t60.5 -13.5q24 0 41.5 4t29.5 11.5t20.5 17t16.5 20.5q7 1 13.5 -4t7.5 -14q-20 -45 -53.5 -69t-70.5 -33l-32 -43q-7 -8 -4.5 -11.5t13.5 -9.5q26 -14 41.5 -32.5t15.5 -46.5q0 -20 -9.5 -36.5t-26 -28t-37.5 -18t-44 -6.5
q-33 0 -52 11t-19 31q0 13 8 22t22 9q9 0 17 -5.5t15.5 -12t14.5 -12t15 -5.5t16.5 8t8.5 24q0 10 -6.5 19.5t-16.5 18.5t-22.5 16t-25.5 13l-3 6z" />
    <glyph glyph-name="egrave" unicode="&#xe8;" horiz-adv-x="409" 
d="M96 584q-11 11 -18 20t-7 18t5 16t18 17q17 14 34 14q8 0 15.5 -6.5t15.5 -23.5l91 -182q-3 -17 -22 -16zM237 277q22 0 33 2t16 5q10 7 10 21q0 27 -17 46t-49 19q-25 0 -43.5 -10.5t-30.5 -24.5t-18 -28.5t-6 -22.5q0 -3 2.5 -5t11.5 -2h91zM145 237q-14 0 -17.5 -2
t-3.5 -11q0 -34 11 -63.5t31 -51.5t48 -34.5t61 -12.5q30 0 54.5 11t41.5 39q8 2 14.5 -3.5t7.5 -12.5q-13 -30 -32.5 -51t-42 -34t-47 -19t-47.5 -6q-44 0 -79.5 15t-60.5 42t-39 63.5t-14 79.5q0 42 14 82t41 71t66.5 50t89.5 19q28 0 55 -9t48 -26t34 -42t13 -58
q0 -13 -5 -23q-9 -13 -69 -13h-173z" />
    <glyph glyph-name="eacute" unicode="&#xe9;" horiz-adv-x="409" 
d="M217 441q-19 -1 -22 16l91 182q8 17 15.5 23.5t15.5 6.5q17 0 34 -14q13 -10 18 -17t5 -16t-7 -18t-18 -20zM237 277q22 0 33 2t16 5q10 7 10 21q0 27 -17 46t-49 19q-25 0 -43.5 -10.5t-30.5 -24.5t-18 -28.5t-6 -22.5q0 -3 2.5 -5t11.5 -2h91zM145 237q-14 0 -17.5 -2
t-3.5 -11q0 -34 11 -63.5t31 -51.5t48 -34.5t61 -12.5q30 0 54.5 11t41.5 39q8 2 14.5 -3.5t7.5 -12.5q-13 -30 -32.5 -51t-42 -34t-47 -19t-47.5 -6q-44 0 -79.5 15t-60.5 42t-39 63.5t-14 79.5q0 42 14 82t41 71t66.5 50t89.5 19q28 0 55 -9t48 -26t34 -42t13 -58
q0 -13 -5 -23q-9 -13 -69 -13h-173z" />
    <glyph glyph-name="ecircumflex" unicode="&#xea;" horiz-adv-x="409" 
d="M208 665q5 8 11 11t11 3q4 0 10.5 -2.5t11.5 -11.5l108 -203q-3 -17 -20 -17l-86 105q-20 25 -27 26q-4 -1 -10 -8.5t-17 -21.5l-83 -103q-17 -2 -20 15zM237 277q22 0 33 2t16 5q10 7 10 21q0 27 -17 46t-49 19q-25 0 -43.5 -10.5t-30.5 -24.5t-18 -28.5t-6 -22.5
q0 -3 2.5 -5t11.5 -2h91zM145 237q-14 0 -17.5 -2t-3.5 -11q0 -34 11 -63.5t31 -51.5t48 -34.5t61 -12.5q30 0 54.5 11t41.5 39q8 2 14.5 -3.5t7.5 -12.5q-13 -30 -32.5 -51t-42 -34t-47 -19t-47.5 -6q-44 0 -79.5 15t-60.5 42t-39 63.5t-14 79.5q0 42 14 82t41 71t66.5 50
t89.5 19q28 0 55 -9t48 -26t34 -42t13 -58q0 -13 -5 -23q-9 -13 -69 -13h-173z" />
    <glyph glyph-name="edieresis" unicode="&#xeb;" horiz-adv-x="409" 
d="M323 480q-24 0 -40.5 13.5t-16.5 40.5q-1 25 15.5 41.5t41.5 16.5q24 0 39 -16.5t15 -37.5q0 -26 -15 -42t-39 -16zM129 480q-24 0 -40 13.5t-16 40.5q-1 25 15 41.5t41 16.5q24 0 39.5 -16.5t15.5 -37.5q0 -26 -15.5 -42t-39.5 -16zM237 277q22 0 33 2t16 5q10 7 10 21
q0 27 -17 46t-49 19q-25 0 -43.5 -10.5t-30.5 -24.5t-18 -28.5t-6 -22.5q0 -3 2.5 -5t11.5 -2h91zM145 237q-14 0 -17.5 -2t-3.5 -11q0 -34 11 -63.5t31 -51.5t48 -34.5t61 -12.5q30 0 54.5 11t41.5 39q8 2 14.5 -3.5t7.5 -12.5q-13 -30 -32.5 -51t-42 -34t-47 -19t-47.5 -6
q-44 0 -79.5 15t-60.5 42t-39 63.5t-14 79.5q0 42 14 82t41 71t66.5 50t89.5 19q28 0 55 -9t48 -26t34 -42t13 -58q0 -13 -5 -23q-9 -13 -69 -13h-173z" />
    <glyph glyph-name="igrave" unicode="&#xec;" horiz-adv-x="268" 
d="M10 584q-11 11 -18 20t-7 18t5 16t18 17q17 14 34 14q8 0 15.5 -6.5t15.5 -23.5l91 -182q-3 -17 -22 -16zM193 119q0 -28 1 -44.5t5 -26t11.5 -13.5t20.5 -6l18 -3q5 -5 4.5 -15.5t-6.5 -13.5q-28 2 -54 2.5t-54 0.5q-48 0 -105 -3q-6 3 -6.5 13.5t4.5 15.5l18 3
q13 2 20.5 6t11.5 13.5t5 26t1 44.5v147q0 17 -0.5 28t-2.5 19t-7.5 13.5t-14.5 11.5l-12 7q-2 3 -2 11t3 12q39 11 74 26t56 28q10 -2 14 -8q-2 -25 -2.5 -58t-0.5 -64v-173z" />
    <glyph glyph-name="iacute" unicode="&#xed;" horiz-adv-x="268" 
d="M132 441q-19 -1 -22 16l91 182q8 17 15.5 23.5t15.5 6.5q17 0 34 -14q13 -10 18 -17t5 -16t-7 -18t-18 -20zM193 119q0 -28 1 -44.5t5 -26t11.5 -13.5t20.5 -6l18 -3q5 -5 4.5 -15.5t-6.5 -13.5q-28 2 -54 2.5t-54 0.5q-48 0 -105 -3q-6 3 -6.5 13.5t4.5 15.5l18 3
q13 2 20.5 6t11.5 13.5t5 26t1 44.5v147q0 17 -0.5 28t-2.5 19t-7.5 13.5t-14.5 11.5l-12 7q-2 3 -2 11t3 12q39 11 74 26t56 28q10 -2 14 -8q-2 -25 -2.5 -58t-0.5 -64v-173z" />
    <glyph glyph-name="icircumflex" unicode="&#xee;" horiz-adv-x="268" 
d="M114 665q5 8 11 11t11 3q4 0 10.5 -2.5t11.5 -11.5l108 -203q-3 -17 -20 -17l-86 105q-20 25 -27 26q-4 -1 -10 -8.5t-17 -21.5l-83 -103q-17 -2 -20 15zM193 119q0 -28 1 -44.5t5 -26t11.5 -13.5t20.5 -6l18 -3q5 -5 4.5 -15.5t-6.5 -13.5q-28 2 -54 2.5t-54 0.5
q-48 0 -105 -3q-6 3 -6.5 13.5t4.5 15.5l18 3q13 2 20.5 6t11.5 13.5t5 26t1 44.5v147q0 17 -0.5 28t-2.5 19t-7.5 13.5t-14.5 11.5l-12 7q-2 3 -2 11t3 12q39 11 74 26t56 28q10 -2 14 -8q-2 -25 -2.5 -58t-0.5 -64v-173z" />
    <glyph glyph-name="idieresis" unicode="&#xef;" horiz-adv-x="268" 
d="M232 480q-24 0 -40.5 13.5t-16.5 40.5q-1 25 15.5 41.5t41.5 16.5q24 0 39 -16.5t15 -37.5q0 -26 -15 -42t-39 -16zM38 480q-24 0 -40 13.5t-16 40.5q-1 25 15 41.5t41 16.5q24 0 39.5 -16.5t15.5 -37.5q0 -26 -15.5 -42t-39.5 -16zM193 119q0 -28 1 -44.5t5 -26
t11.5 -13.5t20.5 -6l18 -3q5 -5 4.5 -15.5t-6.5 -13.5q-28 2 -54 2.5t-54 0.5q-48 0 -105 -3q-6 3 -6.5 13.5t4.5 15.5l18 3q13 2 20.5 6t11.5 13.5t5 26t1 44.5v147q0 17 -0.5 28t-2.5 19t-7.5 13.5t-14.5 11.5l-12 7q-2 3 -2 11t3 12q39 11 74 26t56 28q10 -2 14 -8
q-2 -25 -2.5 -58t-0.5 -64v-173z" />
    <glyph glyph-name="eth" unicode="&#xf0;" horiz-adv-x="490" 
d="M348 581q29 -35 50 -74.5t34.5 -79.5t20 -78.5t6.5 -70.5q0 -145 -56.5 -218.5t-171.5 -73.5q-41 0 -77.5 13.5t-63.5 40t-43 64.5t-16 86q0 46 17.5 86t48 69t71 46t86.5 17q42 0 76 -14q-8 40 -22 76t-40 73l-140 -66q-9 3 -15 15t-3 21l134 64q-20 24 -43 43.5
t-49 34.5q-24 14 -46.5 22.5t-46.5 10.5q-4 4 -3 14t6 13q48 -2 83.5 -10.5t63.5 -19.5q30 -12 58.5 -31t50.5 -41l121 59q9 -4 15.5 -16t3.5 -22zM246 26q50 0 74 44.5t24 144.5q0 44 -3 70.5t-13 44.5q-10 19 -29 28.5t-38 9.5q-48 0 -80 -44.5t-32 -119.5q0 -34 6.5 -66
t18.5 -57t30 -40t42 -15z" />
    <glyph glyph-name="ntilde" unicode="&#xf1;" horiz-adv-x="533" 
d="M325 567q19 0 35.5 3.5t26.5 12.5q19 19 26 36q4 2 10 1t9 -5q-3 -10 -8 -22t-11 -23.5t-12.5 -21.5t-12.5 -16q-11 -13 -22.5 -16.5t-30.5 -3.5h-115q-25 0 -39.5 -5t-27.5 -16q-8 -8 -16.5 -19.5t-14.5 -23.5q-5 -2 -10.5 -0.5t-8.5 6.5q2 7 6 19.5t10 26t12.5 26
t13.5 19.5q14 15 29 18.5t36 3.5h115zM193 119q0 -28 1 -44.5t5 -26.5t11.5 -14t20.5 -6l15 -2q5 -5 4.5 -15.5t-6.5 -13.5q-53 3 -106 3q-24 0 -50 -0.5t-58 -2.5q-6 3 -6.5 13.5t4.5 15.5l22 3q13 2 20.5 6t11.5 13.5t5 26t1 44.5v147q0 17 -0.5 28t-2.5 19t-7.5 13.5
t-14.5 11.5l-12 7q-2 3 -2 11t3 12q16 4 34 10.5t35 14t33 15t28 14.5q9 0 13 -8q-2 -14 -2 -27v-19q0 -9 9 -10q18 10 32.5 19t30 16t33.5 11t41 4q61 0 90 -37.5t29 -96.5v-155q0 -28 1 -44.5t5 -26t11.5 -13.5t20.5 -6l23 -3q5 -5 4.5 -15.5t-6.5 -13.5q-32 2 -58.5 2.5
t-54.5 0.5q-50 0 -102 -3q-6 3 -6.5 13.5t4.5 15.5l15 2q13 2 20.5 6t11.5 14t5 26.5t1 44.5v138q0 38 -17.5 64.5t-62.5 26.5q-23 0 -40.5 -10t-25.5 -21q-5 -7 -7.5 -12.5t-4 -12.5t-2 -16t-0.5 -23v-134z" />
    <glyph glyph-name="ograve" unicode="&#xf2;" horiz-adv-x="492" 
d="M122 584q-11 11 -18 20t-7 18t5 16t18 17q17 14 34 14q8 0 15.5 -6.5t15.5 -23.5l91 -182q-3 -17 -22 -16zM149 205q0 -34 6.5 -66.5t19 -57.5t32.5 -40t47 -15q26 0 43 14t27.5 36.5t14.5 51t4 57.5q0 31 -5.5 64t-18 59t-32 43t-47.5 17q-38 0 -64.5 -39.5
t-26.5 -123.5zM250 408q42 0 80.5 -14t67.5 -40.5t46 -64.5t17 -87q0 -53 -17.5 -93.5t-47.5 -67.5t-69.5 -41t-84.5 -14q-43 0 -81.5 13.5t-67 39.5t-45.5 64t-17 87q0 50 18 90.5t48 69t69.5 43.5t83.5 15z" />
    <glyph glyph-name="oacute" unicode="&#xf3;" horiz-adv-x="492" 
d="M242 441q-19 -1 -22 16l91 182q8 17 15.5 23.5t15.5 6.5q17 0 34 -14q13 -10 18 -17t5 -16t-7 -18t-18 -20zM149 205q0 -34 6.5 -66.5t19 -57.5t32.5 -40t47 -15q26 0 43 14t27.5 36.5t14.5 51t4 57.5q0 31 -5.5 64t-18 59t-32 43t-47.5 17q-38 0 -64.5 -39.5
t-26.5 -123.5zM250 408q42 0 80.5 -14t67.5 -40.5t46 -64.5t17 -87q0 -53 -17.5 -93.5t-47.5 -67.5t-69.5 -41t-84.5 -14q-43 0 -81.5 13.5t-67 39.5t-45.5 64t-17 87q0 50 18 90.5t48 69t69.5 43.5t83.5 15z" />
    <glyph glyph-name="ocircumflex" unicode="&#xf4;" horiz-adv-x="492" 
d="M226 665q5 8 11 11t11 3q4 0 10.5 -2.5t11.5 -11.5l108 -203q-3 -17 -20 -17l-86 105q-20 25 -27 26q-4 -1 -10 -8.5t-17 -21.5l-83 -103q-17 -2 -20 15zM149 205q0 -34 6.5 -66.5t19 -57.5t32.5 -40t47 -15q26 0 43 14t27.5 36.5t14.5 51t4 57.5q0 31 -5.5 64t-18 59
t-32 43t-47.5 17q-38 0 -64.5 -39.5t-26.5 -123.5zM250 408q42 0 80.5 -14t67.5 -40.5t46 -64.5t17 -87q0 -53 -17.5 -93.5t-47.5 -67.5t-69.5 -41t-84.5 -14q-43 0 -81.5 13.5t-67 39.5t-45.5 64t-17 87q0 50 18 90.5t48 69t69.5 43.5t83.5 15z" />
    <glyph glyph-name="otilde" unicode="&#xf5;" horiz-adv-x="492" 
d="M304 567q19 0 35.5 3.5t26.5 12.5q19 19 26 36q4 2 10 1t9 -5q-3 -10 -8 -22t-11 -23.5t-12.5 -21.5t-12.5 -16q-11 -13 -22.5 -16.5t-30.5 -3.5h-115q-25 0 -39.5 -5t-27.5 -16q-8 -8 -16.5 -19.5t-14.5 -23.5q-5 -2 -10.5 -0.5t-8.5 6.5q2 7 6 19.5t10 26t12.5 26
t13.5 19.5q14 15 29 18.5t36 3.5h115zM149 205q0 -34 6.5 -66.5t19 -57.5t32.5 -40t47 -15q26 0 43 14t27.5 36.5t14.5 51t4 57.5q0 31 -5.5 64t-18 59t-32 43t-47.5 17q-38 0 -64.5 -39.5t-26.5 -123.5zM250 408q42 0 80.5 -14t67.5 -40.5t46 -64.5t17 -87
q0 -53 -17.5 -93.5t-47.5 -67.5t-69.5 -41t-84.5 -14q-43 0 -81.5 13.5t-67 39.5t-45.5 64t-17 87q0 50 18 90.5t48 69t69.5 43.5t83.5 15z" />
    <glyph glyph-name="odieresis" unicode="&#xf6;" horiz-adv-x="492" 
d="M344 480q-24 0 -40.5 13.5t-16.5 40.5q-1 25 15.5 41.5t41.5 16.5q24 0 39 -16.5t15 -37.5q0 -26 -15 -42t-39 -16zM150 480q-24 0 -40 13.5t-16 40.5q-1 25 15 41.5t41 16.5q24 0 39.5 -16.5t15.5 -37.5q0 -26 -15.5 -42t-39.5 -16zM149 205q0 -34 6.5 -66.5t19 -57.5
t32.5 -40t47 -15q26 0 43 14t27.5 36.5t14.5 51t4 57.5q0 31 -5.5 64t-18 59t-32 43t-47.5 17q-38 0 -64.5 -39.5t-26.5 -123.5zM250 408q42 0 80.5 -14t67.5 -40.5t46 -64.5t17 -87q0 -53 -17.5 -93.5t-47.5 -67.5t-69.5 -41t-84.5 -14q-43 0 -81.5 13.5t-67 39.5t-45.5 64
t-17 87q0 50 18 90.5t48 69t69.5 43.5t83.5 15z" />
    <glyph glyph-name="divide" unicode="&#xf7;" 
d="M448 174h-385v63h385v-63zM253 284q-23 0 -38.5 15.5t-15.5 38.5q0 20 15.5 36t38.5 16q21 0 36.5 -16t15.5 -36q0 -23 -15.5 -38.5t-36.5 -15.5zM253 21q-23 0 -38.5 15.5t-15.5 38.5q0 20 15.5 36t38.5 16q21 0 36.5 -16t15.5 -36q0 -23 -15.5 -38.5t-36.5 -15.5z" />
    <glyph glyph-name="oslash" unicode="&#xf8;" horiz-adv-x="496" 
d="M388 364q35 -26 56 -66.5t21 -93.5q0 -54 -17.5 -95t-47.5 -68t-70 -41t-85 -14q-58 0 -104 23l-37 -53q-8 -2 -18.5 6t-9.5 18l33 48q-36 25 -57 65.5t-21 96.5q0 51 18 91t48 68.5t70 43.5t85 15q59 0 104 -24l31 45q10 2 20 -5t11 -16zM181 66q13 -19 31.5 -29.5
t42.5 -10.5q28 0 47 14t29.5 36.5t15 51t4.5 57.5q0 26 -4 52.5t-12 49.5zM316 326q-13 20 -31 31t-42 11q-44 0 -71 -39.5t-27 -123.5q0 -27 4 -53t12 -49z" />
    <glyph glyph-name="ugrave" unicode="&#xf9;" horiz-adv-x="520" 
d="M131 584q-11 11 -18 20t-7 18t5 16t18 17q17 14 34 14q8 0 15.5 -6.5t15.5 -23.5l91 -182q-3 -17 -22 -16zM445 147q0 -21 0.5 -40t3 -34t7.5 -23.5t14 -8.5q11 0 21.5 2t21.5 5q6 -4 6.5 -16t-9.5 -18q-17 -2 -38.5 -5.5t-44 -8t-44 -11t-37.5 -13.5q-7 1 -9 10
q2 9 3 19t0 18q-1 11 -10 11q-32 -19 -65 -33.5t-71 -14.5q-34 0 -56.5 9t-36.5 26.5t-20 42t-6 55.5v156q0 26 -1 41.5t-4 24t-9 12.5t-15 7l-14 4q-5 4 -4.5 14t6.5 12q45 1 83.5 6.5t55.5 11.5q9 -2 10 -9q-2 -9 -2.5 -28.5t-0.5 -56.5v-154q0 -22 3 -42.5t11.5 -36.5
t24.5 -25.5t43 -9.5q17 0 35 6.5t31 18.5q8 8 10 18t2 38v151q0 24 -1.5 38t-6 22t-13.5 12t-23 8l-16 5q-5 4 -5 14t6 13q25 0 50 1.5t46 4t37 5.5t24 7q9 -2 10 -9q-3 -29 -3 -85v-167z" />
    <glyph glyph-name="uacute" unicode="&#xfa;" horiz-adv-x="520" 
d="M238 441q-19 -1 -22 16l91 182q8 17 15.5 23.5t15.5 6.5q17 0 34 -14q13 -10 18 -17t5 -16t-7 -18t-18 -20zM445 147q0 -21 0.5 -40t3 -34t7.5 -23.5t14 -8.5q11 0 21.5 2t21.5 5q6 -4 6.5 -16t-9.5 -18q-17 -2 -38.5 -5.5t-44 -8t-44 -11t-37.5 -13.5q-7 1 -9 10
q2 9 3 19t0 18q-1 11 -10 11q-32 -19 -65 -33.5t-71 -14.5q-34 0 -56.5 9t-36.5 26.5t-20 42t-6 55.5v156q0 26 -1 41.5t-4 24t-9 12.5t-15 7l-14 4q-5 4 -4.5 14t6.5 12q45 1 83.5 6.5t55.5 11.5q9 -2 10 -9q-2 -9 -2.5 -28.5t-0.5 -56.5v-154q0 -22 3 -42.5t11.5 -36.5
t24.5 -25.5t43 -9.5q17 0 35 6.5t31 18.5q8 8 10 18t2 38v151q0 24 -1.5 38t-6 22t-13.5 12t-23 8l-16 5q-5 4 -5 14t6 13q25 0 50 1.5t46 4t37 5.5t24 7q9 -2 10 -9q-3 -29 -3 -85v-167z" />
    <glyph glyph-name="ucircumflex" unicode="&#xfb;" horiz-adv-x="520" 
d="M240 665q5 8 11 11t11 3q4 0 10.5 -2.5t11.5 -11.5l108 -203q-3 -17 -20 -17l-86 105q-20 25 -27 26q-4 -1 -10 -8.5t-17 -21.5l-83 -103q-17 -2 -20 15zM445 147q0 -21 0.5 -40t3 -34t7.5 -23.5t14 -8.5q11 0 21.5 2t21.5 5q6 -4 6.5 -16t-9.5 -18q-17 -2 -38.5 -5.5
t-44 -8t-44 -11t-37.5 -13.5q-7 1 -9 10q2 9 3 19t0 18q-1 11 -10 11q-32 -19 -65 -33.5t-71 -14.5q-34 0 -56.5 9t-36.5 26.5t-20 42t-6 55.5v156q0 26 -1 41.5t-4 24t-9 12.5t-15 7l-14 4q-5 4 -4.5 14t6.5 12q45 1 83.5 6.5t55.5 11.5q9 -2 10 -9q-2 -9 -2.5 -28.5
t-0.5 -56.5v-154q0 -22 3 -42.5t11.5 -36.5t24.5 -25.5t43 -9.5q17 0 35 6.5t31 18.5q8 8 10 18t2 38v151q0 24 -1.5 38t-6 22t-13.5 12t-23 8l-16 5q-5 4 -5 14t6 13q25 0 50 1.5t46 4t37 5.5t24 7q9 -2 10 -9q-3 -29 -3 -85v-167z" />
    <glyph glyph-name="udieresis" unicode="&#xfc;" horiz-adv-x="520" 
d="M358 480q-24 0 -40.5 13.5t-16.5 40.5q-1 25 15.5 41.5t41.5 16.5q24 0 39 -16.5t15 -37.5q0 -26 -15 -42t-39 -16zM164 480q-24 0 -40 13.5t-16 40.5q-1 25 15 41.5t41 16.5q24 0 39.5 -16.5t15.5 -37.5q0 -26 -15.5 -42t-39.5 -16zM445 147q0 -21 0.5 -40t3 -34
t7.5 -23.5t14 -8.5q11 0 21.5 2t21.5 5q6 -4 6.5 -16t-9.5 -18q-17 -2 -38.5 -5.5t-44 -8t-44 -11t-37.5 -13.5q-7 1 -9 10q2 9 3 19t0 18q-1 11 -10 11q-32 -19 -65 -33.5t-71 -14.5q-34 0 -56.5 9t-36.5 26.5t-20 42t-6 55.5v156q0 26 -1 41.5t-4 24t-9 12.5t-15 7l-14 4
q-5 4 -4.5 14t6.5 12q45 1 83.5 6.5t55.5 11.5q9 -2 10 -9q-2 -9 -2.5 -28.5t-0.5 -56.5v-154q0 -22 3 -42.5t11.5 -36.5t24.5 -25.5t43 -9.5q17 0 35 6.5t31 18.5q8 8 10 18t2 38v151q0 24 -1.5 38t-6 22t-13.5 12t-23 8l-16 5q-5 4 -5 14t6 13q25 0 50 1.5t46 4t37 5.5
t24 7q9 -2 10 -9q-3 -29 -3 -85v-167z" />
    <glyph glyph-name="yacute" unicode="&#xfd;" horiz-adv-x="448" 
d="M252 441q-19 -1 -22 16l91 182q8 17 15.5 23.5t15.5 6.5q17 0 34 -14q13 -10 18 -17t5 -16t-7 -18t-18 -20zM72 -249q-29 0 -42 15.5t-13 37.5q0 25 15 35t36 10l22 1q11 0 22.5 4.5t19.5 15.5q16 23 32.5 58t16.5 67q0 11 -3 28t-14 46l-81 210q-9 23 -15.5 38
t-13.5 24.5t-16.5 14.5t-23.5 8l-20 4q-6 6 -5.5 16t8.5 13q25 -2 54 -2.5t57 -0.5q55 0 106 3q6 -3 6.5 -13.5t-4.5 -15.5l-30 -6q-9 -2 -13.5 -4.5t-5 -7.5t2.5 -15t9 -26l44 -115q28 -74 34 -76q3 1 12.5 20.5t19.5 41.5l30 67q18 41 27 67.5t9 29.5q0 7 -4 11t-15 6
l-34 7q-5 6 -4.5 15.5t6.5 13.5q27 -2 52.5 -2.5t42.5 -0.5q39 0 80 3q8 -2 8 -13t-5 -16q-9 -2 -28 -6.5t-29 -15.5q-8 -8 -23 -31t-38 -70l-51 -102l-34.5 -69l-45.5 -91t-46.5 -96t-38.5 -82q-13 -29 -32 -41.5t-44 -12.5z" />
    <glyph glyph-name="thorn" unicode="&#xfe;" horiz-adv-x="522" 
d="M185 109q0 -23 8 -37t23 -27q11 -8 27 -13.5t28 -5.5q26 0 46 12.5t33.5 35t20.5 52t7 64.5q0 71 -34.5 115.5t-93.5 44.5q-34 0 -54 -20q-6 -7 -8.5 -21.5t-2.5 -46.5v-153zM80 528q0 25 -0.5 40t-3 24t-8 14t-14.5 11l-11 7q-5 3 -5 12t5 11q29 8 64.5 22t66.5 26
q10 2 14 -8q-1 -15 -1.5 -33.5t-1 -38t-0.5 -38.5v-35v-164q0 -11 8 -13q5 2 17.5 9t30 14.5t38 13.5t40.5 6q41 0 73 -14.5t54 -39.5t33.5 -58.5t11.5 -72.5q0 -52 -17.5 -95.5t-50 -75t-78 -49t-100.5 -17.5q-10 0 -24 1t-21 3q-7 -2 -11 -7.5t-4 -20.5v-98q0 -28 1 -44.5
t5 -26t12 -13.5t21 -5l36 -4q5 -5 4.5 -15.5t-6.5 -13.5q-39 2 -69.5 2.5t-58.5 0.5q-52 0 -112 -3q-6 3 -6.5 13.5t4.5 15.5l26 3q13 2 20.5 6t11.5 13.5t5 26t1 44.5v664z" />
    <glyph glyph-name="ydieresis" unicode="&#xff;" horiz-adv-x="448" 
d="M342 480q-24 0 -40.5 13.5t-16.5 40.5q-1 25 15.5 41.5t41.5 16.5q24 0 39 -16.5t15 -37.5q0 -26 -15 -42t-39 -16zM148 480q-24 0 -40 13.5t-16 40.5q-1 25 15 41.5t41 16.5q24 0 39.5 -16.5t15.5 -37.5q0 -26 -15.5 -42t-39.5 -16zM72 -249q-29 0 -42 15.5t-13 37.5
q0 25 15 35t36 10l22 1q11 0 22.5 4.5t19.5 15.5q16 23 32.5 58t16.5 67q0 11 -3 28t-14 46l-81 210q-9 23 -15.5 38t-13.5 24.5t-16.5 14.5t-23.5 8l-20 4q-6 6 -5.5 16t8.5 13q25 -2 54 -2.5t57 -0.5q55 0 106 3q6 -3 6.5 -13.5t-4.5 -15.5l-30 -6q-9 -2 -13.5 -4.5
t-5 -7.5t2.5 -15t9 -26l44 -115q28 -74 34 -76q3 1 12.5 20.5t19.5 41.5l30 67q18 41 27 67.5t9 29.5q0 7 -4 11t-15 6l-34 7q-5 6 -4.5 15.5t6.5 13.5q27 -2 52.5 -2.5t42.5 -0.5q39 0 80 3q8 -2 8 -13t-5 -16q-9 -2 -28 -6.5t-29 -15.5q-8 -8 -23 -31t-38 -70l-51 -102
l-34.5 -69l-45.5 -91t-46.5 -96t-38.5 -82q-13 -29 -32 -41.5t-44 -12.5z" />
    <glyph glyph-name="OE" unicode="&#x152;" horiz-adv-x="1016" 
d="M555 546q0 19 -3 33.5t-13.5 24.5t-31 15t-54.5 5q-72 0 -123.5 -23t-85.5 -63t-50 -93t-16 -114q0 -58 16 -111.5t48 -95t80.5 -66t113.5 -24.5q25 0 48.5 5t40.5 14q19 11 24.5 25t5.5 30v438zM805 660q48 0 86.5 0.5t48.5 2.5q1 -6 3 -22.5t4 -37t4.5 -42t4.5 -37.5
q-3 -6 -14.5 -7.5t-17.5 3.5q-12 44 -25.5 64.5t-37.5 26.5q-17 5 -38.5 7t-41.5 2h-67q-16 0 -25 -1t-13 -7t-4.5 -18t-0.5 -33v-170q0 -19 3.5 -22.5t20.5 -3.5h48q33 0 53 1t32 5t17.5 13t8.5 25l7 34q6 5 17 5t15 -6q-1 -20 -2 -46t-1 -54q0 -29 1 -55t2 -50
q-4 -5 -15 -5.5t-17 4.5l-7 40q-3 16 -8.5 24.5t-17.5 13t-32 5.5t-53 1h-48q-17 0 -20.5 -4t-3.5 -23v-127q0 -38 3 -64.5t14 -39.5q4 -5 10.5 -9t19 -7t32 -4.5t51.5 -1.5q48 -1 77.5 4.5t49 18.5t32 34t25.5 51q7 5 17 3.5t15 -9.5q-2 -16 -7 -36.5t-11 -41.5t-12.5 -39
t-11.5 -28q-17 1 -40.5 1.5t-55.5 0.5q-32 1 -69 1h-82h-104q-56 0 -98 -3q-22 -1 -41.5 -2t-39.5 -1q-101 0 -176.5 25t-125.5 68.5t-75.5 103.5t-25.5 130t26.5 132.5t79 109t129 73.5t177.5 27q35 0 78 -1.5t88 -1.5h185z" />
    <glyph glyph-name="oe" unicode="&#x153;" horiz-adv-x="730" 
d="M243 368q-41 0 -67.5 -39.5t-26.5 -123.5q0 -34 6 -66.5t19 -57.5t33 -40t48 -15q27 0 44.5 14t28 36.5t15 51t4.5 57.5q0 32 -5.5 64.5t-18 59t-32.5 43t-48 16.5zM464 237q-14 0 -17.5 -2t-3.5 -11q0 -35 10.5 -65t31 -51.5t49 -33.5t64.5 -12q29 0 53.5 11t41.5 39
q8 2 14.5 -3.5t7.5 -12.5q-13 -30 -32.5 -51t-42 -34t-46.5 -19t-46 -6q-52 0 -90 20t-63 50q-26 -35 -65.5 -52.5t-90.5 -17.5q-42 0 -80 13.5t-66.5 39.5t-45 64t-16.5 87q0 51 18 91t48 68.5t70 43.5t85 15q99 0 150 -72q26 32 66.5 52t88.5 20q30 0 57.5 -8.5t49.5 -26
t35 -42.5t13 -58q0 -13 -5 -23q-9 -13 -69 -13h-174zM542 277q32 0 46.5 2t19.5 5q10 5 10 18q0 27 -17 47.5t-51 20.5q-25 0 -43.5 -10.5t-30.5 -24.5t-18 -28.5t-6 -22.5q0 -3 2.5 -5t11.5 -2h76z" />
    <glyph glyph-name="Scaron" unicode="&#x160;" horiz-adv-x="504" 
d="M301 713q-24 -21 -49 0l-141 136q0 7 3.5 12t11.5 5l132 -73q8 -4 18.5 -4.5t18.5 4.5l134 73q13 -2 13 -17zM231 -16q-35 0 -62 5t-47 11.5t-34 13.5t-21 12q-7 8 -12.5 24t-9.5 36.5t-6 44.5t-2 47q5 8 15 8.5t16 -4.5q7 -19 20.5 -46t34.5 -52t49.5 -42.5t65.5 -17.5
q57 0 88 30.5t31 76.5q0 43 -22.5 78t-79.5 67l-43 24q-28 16 -53.5 35.5t-45 43t-31 52t-11.5 62.5q0 37 14 70.5t41.5 58.5t68.5 39.5t96 14.5q39 0 70.5 -7t66.5 -14q4 -8 8 -23.5t7 -34.5t4.5 -39t1.5 -38q-4 -7 -14.5 -7.5t-17.5 4.5q-6 19 -15.5 40.5t-25.5 38.5
t-39 28.5t-55 11.5q-30 0 -51.5 -9t-35 -23.5t-20 -33.5t-6.5 -39q0 -32 22.5 -64t72.5 -58l62 -33q24 -13 48.5 -31t44 -42.5t32 -55t12.5 -68.5q0 -43 -16 -78.5t-46 -61.5t-73 -40.5t-97 -14.5z" />
    <glyph glyph-name="scaron" unicode="&#x161;" horiz-adv-x="346" 
d="M57 675q3 17 20 15l83 -103q11 -14 17 -21.5t10 -8.5q7 1 27 26l86 105q17 0 20 -17l-108 -203q-5 -9 -11.5 -11.5t-10.5 -2.5q-5 0 -11 3t-11 11zM163 -14q-31 0 -60.5 7t-53.5 25q-4 7 -7 19.5t-4.5 28t-2.5 32.5t0 33q5 6 14 6.5t14 -4.5q7 -21 17 -40.5t23.5 -35
t30.5 -24.5t37 -9q23 0 39.5 15t16.5 41q0 28 -21 46.5t-47 31.5q-20 9 -39 21t-34 27.5t-24 34.5t-9 43q0 29 11.5 52t31.5 39t47.5 24.5t58.5 8.5t56.5 -7t36.5 -13q15 -32 15 -97q-2 -6 -12 -8t-15 3q-11 35 -34 59.5t-52 24.5q-24 0 -40 -15t-16 -37t19 -38t48 -30
q20 -10 40 -21.5t35.5 -28t25.5 -38t10 -51.5q0 -33 -13.5 -56.5t-35 -38.5t-49.5 -22.5t-58 -7.5z" />
    <glyph glyph-name="Ydieresis" unicode="&#x178;" horiz-adv-x="590" 
d="M429 702q-23 0 -39 13t-16 39q-1 24 15 40t40 16q23 0 38 -16t15 -36q0 -26 -15 -41t-38 -15zM234 702q-23 0 -39 13t-16 39q-1 24 15 40t40 16q23 0 38 -16t15 -36q0 -26 -15 -41t-38 -15zM241 203q0 21 -1 35.5t-4.5 27.5t-10 27t-16.5 34l-120 237q-8 16 -14.5 27
t-14.5 18t-18.5 11.5t-27.5 7.5l-26 6q-5 5 -3.5 16t7.5 13q64 -3 126 -3h35t37 0.5t32.5 1t23.5 1.5q6 -3 7 -13.5t-5 -15.5l-30 -5q-12 -2 -16.5 -4.5t-4.5 -8.5t3.5 -16.5t14.5 -35.5q30 -65 58 -125t58 -115q31 57 59.5 110.5t57.5 110.5q13 26 20 42.5t7 24.5t-6 10.5
t-17 4.5l-30 7q-5 5 -5 15t8 14q33 -2 57.5 -2.5t47.5 -0.5q47 0 95 3q7 -4 7 -14q0 -9 -5 -15l-29 -6q-17 -3 -29 -9t-23 -18.5t-24.5 -33.5t-32.5 -54q-26 -43 -49 -84.5t-46 -83.5q-11 -20 -18.5 -34.5t-11.5 -30t-5.5 -33.5t-1.5 -43v-60q0 -40 2 -62t8.5 -33t18 -14
t29.5 -5l38 -4q5 -5 4.5 -15.5t-6.5 -13.5q-47 2 -82.5 2.5t-68.5 0.5q-35 0 -69.5 -0.5t-75.5 -2.5q-6 3 -6.5 13.5t4.5 15.5l32 4q18 2 29 5t17 14t8 33t2 62v59z" />
    <glyph glyph-name="florin" unicode="&#x192;" 
d="M428 397q8 -5 8 -20q0 -14 -8 -20h-110q-13 0 -16 -3t-6 -17l-24 -117q-2 -12 -7.5 -36t-12 -53t-14.5 -59t-15 -52q-21 -67 -58.5 -104.5t-100.5 -37.5q-38 0 -66 16.5t-28 51.5q2 20 14.5 31.5t24.5 11.5q8 0 17 -11.5t20 -24.5q20 -23 30 -30.5t18 -6.5q11 0 17.5 20
t14.5 58l60 344q2 12 1 15.5t-12 3.5h-77q-8 6 -8 20q0 15 8 20h85q11 0 13.5 3t4.5 14q8 38 19.5 74t26.5 64q9 18 23.5 36.5t35 34t48 25.5t64.5 10q27 0 45.5 -5.5t30 -13.5t16 -17.5t4.5 -18.5q0 -10 -3.5 -20t-9 -18t-12.5 -13t-13 -5q-8 0 -14.5 5.5t-18.5 21.5
q-33 43 -57 43q-20 0 -39 -59q-11 -34 -20.5 -74.5t-14.5 -69.5q-2 -11 0 -14t15 -3h101z" />
    <glyph glyph-name="circumflex" unicode="&#x2c6;" horiz-adv-x="380" 
d="M170 665q5 8 11 11t11 3q4 0 10.5 -2.5t11.5 -11.5l108 -203q-3 -17 -20 -17l-86 105q-20 25 -27 26q-4 -1 -10 -8.5t-17 -21.5l-83 -103q-17 -2 -20 15z" />
    <glyph glyph-name="tilde" unicode="&#x2dc;" horiz-adv-x="380" 
d="M248 567q19 0 35.5 3.5t26.5 12.5q19 19 26 36q4 2 10 1t9 -5q-3 -10 -8 -22t-11 -23.5t-12.5 -21.5t-12.5 -16q-11 -13 -22.5 -16.5t-30.5 -3.5h-115q-25 0 -39.5 -5t-27.5 -16q-8 -8 -16.5 -19.5t-14.5 -23.5q-5 -2 -10.5 -0.5t-8.5 6.5q2 7 6 19.5t10 26t12.5 26
t13.5 19.5q14 15 29 18.5t36 3.5h115z" />
    <glyph glyph-name="endash" unicode="&#x2013;" horiz-adv-x="500" 
d="M500 236v-61h-500v61h500z" />
    <glyph glyph-name="emdash" unicode="&#x2014;" horiz-adv-x="1000" 
d="M1000 236v-61h-1000v61h1000z" />
    <glyph glyph-name="quoteleft" unicode="&#x2018;" horiz-adv-x="248" 
d="M141 453q-18 0 -34.5 8.5t-29 22.5t-20 32.5t-7.5 39.5q0 28 11.5 52.5t31 44t44 33t50.5 19.5q6 -5 7.5 -12.5t-0.5 -13.5q-32 -14 -56.5 -36t-24.5 -55q0 -25 18 -37.5t36 -14.5q11 -2 21 -10.5t10 -25.5q0 -6 -2.5 -14.5t-9 -15.5t-17.5 -12t-28 -5z" />
    <glyph glyph-name="quoteright" unicode="&#x2019;" horiz-adv-x="248" 
d="M107 700q18 0 34.5 -8.5t29 -22.5t20 -32.5t7.5 -39.5q0 -29 -11.5 -53t-31 -43.5t-44 -33t-50.5 -19.5q-6 5 -7.5 12.5t0.5 13.5q32 14 56.5 36t24.5 55q0 25 -18 37.5t-36 14.5q-11 2 -21 10.5t-10 25.5q0 6 2.5 14.5t9 15.5t17.5 12t28 5z" />
    <glyph glyph-name="quotesinglbase" unicode="&#x201a;" horiz-adv-x="248" 
d="M107 110q18 0 34.5 -8.5t29 -22.5t20 -32.5t7.5 -39.5q0 -29 -11.5 -53t-31 -43.5t-44 -33t-50.5 -19.5q-6 5 -7.5 12.5t0.5 13.5q32 14 56.5 36t24.5 55q0 25 -18 37.5t-36 14.5q-11 2 -21 10.5t-10 25.5q0 6 2.5 14.5t9 15.5t17.5 12t28 5z" />
    <glyph glyph-name="quotedblleft" unicode="&#x201c;" horiz-adv-x="438" 
d="M141 453q-18 0 -34.5 8.5t-29 22.5t-20 32.5t-7.5 39.5q0 28 11.5 52.5t31 44t44 33t50.5 19.5q6 -5 7.5 -12.5t-0.5 -13.5q-32 -14 -56.5 -36t-24.5 -55q0 -25 18 -37.5t36 -14.5q11 -2 21 -10.5t10 -25.5q0 -6 -2.5 -14.5t-9 -15.5t-17.5 -12t-28 -5zM331 453
q-18 0 -34.5 8.5t-29 22.5t-20 32.5t-7.5 39.5q0 28 11.5 52.5t31 44t44 33t50.5 19.5q6 -5 7.5 -12.5t-0.5 -13.5q-32 -14 -56.5 -36t-24.5 -55q0 -25 18 -37.5t36 -14.5q11 -2 21 -10.5t10 -25.5q0 -6 -2.5 -14.5t-9 -15.5t-17.5 -12t-28 -5z" />
    <glyph glyph-name="quotedblright" unicode="&#x201d;" horiz-adv-x="438" 
d="M107 700q18 0 34.5 -8.5t29 -22.5t20 -32.5t7.5 -39.5q0 -29 -11.5 -53t-31 -43.5t-44 -33t-50.5 -19.5q-6 5 -7.5 12.5t0.5 13.5q32 14 56.5 36t24.5 55q0 25 -18 37.5t-36 14.5q-11 2 -21 10.5t-10 25.5q0 6 2.5 14.5t9 15.5t17.5 12t28 5zM297 700q18 0 34.5 -8.5
t29 -22.5t20 -32.5t7.5 -39.5q0 -29 -11.5 -53t-31 -43.5t-44 -33t-50.5 -19.5q-6 5 -7.5 12.5t0.5 13.5q32 14 56.5 36t24.5 55q0 25 -18 37.5t-36 14.5q-11 2 -21 10.5t-10 25.5q0 6 2.5 14.5t9 15.5t17.5 12t28 5z" />
    <glyph glyph-name="quotedblbase" unicode="&#x201e;" horiz-adv-x="438" 
d="M107 110q18 0 34.5 -8.5t29 -22.5t20 -32.5t7.5 -39.5q0 -29 -11.5 -53t-31 -43.5t-44 -33t-50.5 -19.5q-6 5 -7.5 12.5t0.5 13.5q32 14 56.5 36t24.5 55q0 25 -18 37.5t-36 14.5q-11 2 -21 10.5t-10 25.5q0 6 2.5 14.5t9 15.5t17.5 12t28 5zM297 110q18 0 34.5 -8.5
t29 -22.5t20 -32.5t7.5 -39.5q0 -29 -11.5 -53t-31 -43.5t-44 -33t-50.5 -19.5q-6 5 -7.5 12.5t0.5 13.5q32 14 56.5 36t24.5 55q0 25 -18 37.5t-36 14.5q-11 2 -21 10.5t-10 25.5q0 6 2.5 14.5t9 15.5t17.5 12t28 5z" />
    <glyph glyph-name="dagger" unicode="&#x2020;" horiz-adv-x="486" 
d="M219 -127v137q0 43 -3.5 78.5t-8.5 65.5t-12.5 56.5t-14.5 51.5q23 29 31 67t8 103q-22 0 -39 -5t-31.5 -11t-27 -11t-24.5 -5q-24 0 -38 14t-14 36q0 21 14 35t38 14q12 0 24.5 -5t27 -11t31.5 -11t39 -5q0 33 -5.5 54.5t-12.5 37.5t-12.5 28.5t-5.5 27.5q0 26 15 43.5
t45 17.5t45 -17.5t15 -43.5q0 -15 -5.5 -27.5t-12.5 -28.5t-12.5 -37.5t-5.5 -54.5q22 0 39 5t31.5 11t27.5 11t25 5q23 0 37 -14t14 -35q0 -22 -14 -36t-37 -14q-12 0 -25 5t-27.5 11t-31.5 11t-39 5q0 -65 8 -103t31 -67q-8 -25 -15 -51.5t-12 -56.5t-8.5 -65.5
t-3.5 -78.5v-137h-48z" />
    <glyph glyph-name="daggerdbl" unicode="&#x2021;" horiz-adv-x="486" 
d="M243 -124q-29 0 -44 17t-15 41q0 13 5.5 27t12 33t12.5 44.5t6 62.5q-24 0 -42.5 -4.5t-34 -10.5t-28 -10.5t-23.5 -4.5q-23 0 -35 14t-12 33t12 33t35 14q11 0 23.5 -4.5t28 -10.5t34 -10.5t42.5 -4.5q-1 60 -9 95.5t-31 56.5q23 23 31.5 58.5t8.5 92.5
q-24 0 -42.5 -4.5t-34 -10.5t-28 -10.5t-23.5 -4.5q-23 0 -35 14t-12 33t12 33t35 14q11 0 23.5 -4.5t28 -10.5t34 -10.5t42.5 -4.5q0 34 -6 57t-12.5 39.5t-12 28t-5.5 22.5q0 9 3 19t9.5 18.5t18 14t28.5 5.5t28.5 -5.5t18 -14t9.5 -18.5t3 -19q0 -11 -5.5 -22.5t-12 -28
t-12.5 -39.5t-6 -57q24 0 42 4.5t33 10.5t27.5 10.5t24.5 4.5q23 0 35.5 -14t12.5 -33q0 -18 -12.5 -32.5t-35.5 -14.5q-12 0 -24.5 4.5t-27.5 10.5t-33 10.5t-42 4.5q0 -57 8.5 -92.5t31.5 -58.5q-23 -21 -31 -56.5t-9 -95.5q24 0 42 4.5t33 10.5t27.5 10.5t24.5 4.5
q23 0 35.5 -14t12.5 -33q0 -18 -12.5 -32.5t-35.5 -14.5q-12 0 -24.5 4.5t-27.5 10.5t-33 10.5t-42 4.5q0 -37 6 -62.5t12.5 -44.5t12 -33t5.5 -27q0 -24 -15 -41t-44 -17z" />
    <glyph glyph-name="bullet" unicode="&#x2022;" horiz-adv-x="398" 
d="M199 485q31 0 58 -11.5t47.5 -31.5t32 -47.5t11.5 -58.5q0 -32 -11.5 -59t-32 -46.5t-47.5 -31t-58 -11.5t-58 11.5t-47.5 31t-32 46.5t-11.5 59q0 31 11.5 58.5t32 47.5t47.5 31.5t58 11.5z" />
    <glyph glyph-name="ellipsis" unicode="&#x2026;" horiz-adv-x="1000" 
d="M167 -14q-29 0 -47.5 19t-18.5 47t18.5 47t47.5 19q28 0 46.5 -19t18.5 -47t-18.5 -47t-46.5 -19zM833 -14q-29 0 -47.5 19t-18.5 47t18.5 47t47.5 19q28 0 46.5 -19t18.5 -47t-18.5 -47t-46.5 -19zM500 -14q-29 0 -47.5 19t-18.5 47t18.5 47t47.5 19q28 0 46.5 -19
t18.5 -47t-18.5 -47t-46.5 -19z" />
    <glyph glyph-name="perthousand" unicode="&#x2030;" horiz-adv-x="1174" 
d="M221 -40q-12 -1 -21.5 5.5t-13.5 16.5l404 670q9 2 21 -4.5t16 -15.5zM904 170q0 -18 2.5 -44t10 -49.5t21 -40t35.5 -16.5t35.5 16.5t21 40t10 49.5t2.5 44q0 19 -2.5 45t-10 49.5t-21 40t-35.5 16.5t-35.5 -16.5t-21 -40t-10 -49.5t-2.5 -45zM973 355q40 0 68.5 -17.5
t46.5 -45t26.5 -60t8.5 -62.5q0 -29 -8.5 -61.5t-26.5 -59.5t-46.5 -45t-68.5 -18t-68.5 18t-46.5 45t-26.5 59.5t-8.5 61.5q0 30 8.5 62.5t26.5 60t46.5 45t68.5 17.5zM132 455q0 -18 2.5 -44t10 -49.5t21 -40t35.5 -16.5t35.5 16.5t21 40t10 49.5t2.5 44q0 19 -2.5 45
t-10 49.5t-21 40t-35.5 16.5t-35.5 -16.5t-21 -40t-10 -49.5t-2.5 -45zM201 640q40 0 68.5 -17.5t46.5 -45t26.5 -60t8.5 -62.5q0 -29 -8.5 -61.5t-26.5 -59.5t-46.5 -45t-68.5 -18t-68.5 18t-46.5 45t-26.5 59.5t-8.5 61.5q0 30 8.5 62.5t26.5 60t46.5 45t68.5 17.5z
M554 170q0 -18 2.5 -44t10 -49.5t21 -40t35.5 -16.5t35.5 16.5t21 40t10 49.5t2.5 44q0 19 -2.5 45t-10 49.5t-21 40t-35.5 16.5t-35.5 -16.5t-21 -40t-10 -49.5t-2.5 -45zM623 355q40 0 68.5 -17.5t46.5 -45t26.5 -60t8.5 -62.5q0 -29 -8.5 -61.5t-26.5 -59.5t-46.5 -45
t-68.5 -18t-68.5 18t-46.5 45t-26.5 59.5t-8.5 61.5q0 30 8.5 62.5t26.5 60t46.5 45t68.5 17.5z" />
    <glyph glyph-name="guilsinglleft" unicode="&#x2039;" horiz-adv-x="256" 
d="M211 43q-4 -11 -18 -14q-34 40 -68.5 80t-71.5 80q-8 9 -8 16q0 8 8 17q37 40 71.5 79.5t68.5 79.5q14 -2 18 -14l-72 -148q-7 -13 0 -26z" />
    <glyph glyph-name="guilsinglright" unicode="&#x203a;" horiz-adv-x="256" 
d="M117 193q6 13 0 26l-72 148q4 12 18 14q34 -40 68.5 -79.5t71.5 -79.5q8 -9 8 -17q0 -7 -8 -16q-37 -40 -71.5 -80t-68.5 -80q-14 3 -18 14z" />
    <glyph glyph-name="trademark" unicode="&#x2122;" horiz-adv-x="1044" 
d="M475 282q20 5 29.5 12.5t11.5 33.5q0 4 1 17.5t2.5 32.5t3.5 41.5t3 46.5q2 32 2.5 64.5t0.5 57.5q0 36 -37 48l-13 4q-5 2 -4.5 11t7.5 11q9 -1 25.5 -1.5t33.5 -0.5h29q19 0 49 2q0 -14 5 -31.5t11.5 -35.5t14 -34.5t13.5 -28.5l58 -113q4 -9 12.5 -25.5t13.5 -24.5
q5 6 12.5 19.5t21.5 39.5l46 89q6 11 14.5 27.5t18 36t18.5 40.5t15 41q21 -2 34 -2h25q25 0 42.5 0.5t27.5 1.5q5 -3 5.5 -10t-3.5 -12l-15 -5q-12 -4 -19.5 -7.5t-12.5 -9t-7 -14t-2 -21.5v-18t0.5 -23.5t0.5 -25.5v-22v-32t1 -42.5t1.5 -45t2.5 -40.5q2 -19 5 -31.5
t25 -18.5l22 -6q4 -5 3.5 -12t-6.5 -10q-21 1 -41.5 1.5t-42.5 0.5q-26 0 -47.5 -0.5t-40.5 -1.5q-7 2 -7 10t5 12l21 5q7 2 12 4.5t8.5 8t5 15t1.5 25.5l-1 208q0 8 -0.5 13.5t-2.5 7.5q-1 0 -5 -7t-9 -16.5t-11.5 -21t-11.5 -20.5l-55 -108q-3 -5 -12 -23t-19.5 -40
t-21 -43t-14.5 -32q-5 -5 -17 -1q-4 13 -11 29.5t-14.5 33.5t-15.5 33t-14 27l-58 117q-3 7 -9 18t-12 21.5t-11 18.5t-6 9q0 -2 -0.5 -12t-1.5 -23.5t-1.5 -27.5t-0.5 -24q-1 -28 -1 -63v-66q0 -20 0.5 -30.5t3.5 -16.5t8.5 -8t16.5 -5l26 -6q4 -3 3.5 -11.5t-6.5 -10.5
q-20 1 -37.5 1.5t-36.5 0.5q-18 0 -37.5 -0.5t-41.5 -1.5q-8 2 -8 10q0 9 6 12zM194 601q0 22 -3 26t-19 4h-27q-19 0 -38.5 -2.5t-32.5 -13.5q-11 -10 -17.5 -19.5t-13.5 -22.5q-4 -2 -11 0t-9 8q8 23 14.5 51.5t9.5 45.5q2 4 7 4.5t9 -2.5q-1 -14 12 -17t42 -3h263
q27 0 36.5 3t12.5 11q3 2 9.5 1t7.5 -5q-3 -8 -5 -20.5t-3.5 -26t-2 -27t0.5 -22.5q-3 -4 -9.5 -4.5t-11.5 2.5q-2 17 -6.5 28t-9.5 17q-12 14 -60 14h-44q-16 0 -19 -3.5t-3 -26.5v-240q0 -24 0.5 -38.5t4.5 -23t12 -12.5t22 -6l19 -3q4 -3 3.5 -11.5t-4.5 -10.5
q-22 1 -45.5 1.5t-52.5 0.5q-26 0 -49.5 -0.5t-50.5 -1.5q-6 3 -6.5 10.5t5.5 11.5l24 4q14 2 22 5.5t11.5 12t4.5 23t1 38.5v240z" />
    <glyph glyph-name="fraction" horiz-adv-x="100" 
d="M278 628q-105 -168 -208 -334t-206 -334q-15 -1 -26 7t-15 19q105 168 208 334t206 334q13 2 26 -5.5t15 -20.5z" />
    <glyph glyph-name="fi" horiz-adv-x="539" 
d="M88 317q0 20 -2.5 25t-15.5 5h-36q-6 3 -7 10.5t4 12.5l43 22q5 3 9.5 8t4.5 14v11q0 40 6 79t20 71q26 64 75 102t129 38q30 0 56 -7.5t45 -20t30 -29.5t11 -36q0 -25 -15.5 -38.5t-36.5 -13.5q-18 0 -25.5 6t-12.5 14q-25 48 -48.5 66.5t-43.5 18.5q-27 0 -43.5 -15.5
t-25.5 -47t-12.5 -78.5t-3.5 -110v-8q0 -14 4 -18t21 -4h85q34 0 61 2.5t47 4.5q20 3 31 5t12 2q10 0 13 -8q-2 -23 -2.5 -56t-0.5 -64v-161q0 -28 1 -44.5t5 -26t11.5 -13.5t20.5 -6l18 -3q5 -5 4.5 -15.5t-6.5 -13.5q-28 2 -54 2.5t-54 0.5q-52 0 -98 -3q-7 3 -7.5 13.5
t4.5 15.5l12 2q13 2 20.5 6t11.5 14t5 26.5t1 44.5v150q0 28 -1 44t-6 23.5t-15.5 9t-29.5 1.5h-93q-14 0 -17.5 -4.5t-3.5 -26.5v-197q0 -28 1 -44.5t5 -26t12 -13.5t21 -6l25 -3q5 -5 4.5 -15.5t-6.5 -13.5q-47 3 -117 3q-24 0 -50 -0.5t-58 -2.5q-7 3 -7.5 13.5t5.5 15.5
l22 3q13 2 20.5 6t11.5 13.5t5 26t1 44.5v198z" />
    <glyph glyph-name="fl" horiz-adv-x="539" 
d="M334 394q17 0 21 3.5t4 18.5v190q0 29 -18.5 49t-48.5 20q-47 0 -73 -54.5t-26 -174.5v-20q0 -23 4 -27.5t18 -4.5h119zM464 119q0 -28 1 -44.5t5 -26t11.5 -13.5t20.5 -6l22 -3q5 -5 4.5 -15.5t-6.5 -13.5q-32 2 -58 2.5t-54 0.5q-49 0 -103 -3q-6 3 -6.5 13.5t4.5 15.5
l16 3q13 2 20.5 6t11.5 13.5t5 26t1 44.5v202q0 18 -4 22t-21 4h-120q-14 0 -17.5 -4.5t-3.5 -26.5v-197q0 -28 1 -44.5t5 -26t12 -13.5t21 -6l24 -3q5 -5 4.5 -15.5t-6.5 -13.5q-45 3 -116 3q-25 0 -50.5 -0.5t-57.5 -2.5q-6 3 -6.5 13.5t4.5 15.5l22 3q13 2 20.5 6
t11.5 13.5t5 26t1 44.5v198q0 20 -2.5 25t-15.5 5h-36q-6 3 -7 10.5t4 12.5l43 22q5 3 9.5 8t4.5 14v18q0 32 4.5 66.5t20.5 76.5q23 60 74.5 100t124.5 40q29 0 52.5 -6t46.5 -20q13 8 23 14t19 12q10 2 14 -8q-1 -15 -1.5 -33.5t-1 -38t-0.5 -38.5v-35v-443z" />
    <glyph glyph-name="breve" horiz-adv-x="380" 
d="M190 485q-66 0 -103 36.5t-35 109.5q12 8 22 0q10 -42 42.5 -63.5t73.5 -21.5t73.5 21.5t42.5 63.5q10 8 22 0q2 -73 -35 -109.5t-103 -36.5z" />
    <glyph glyph-name="dotaccent" horiz-adv-x="380" 
d="M191 480q-24 0 -40 13.5t-16 40.5q-1 25 15 41.5t41 16.5q24 0 39.5 -16.5t15.5 -37.5q0 -26 -15.5 -42t-39.5 -16z" />
    <glyph glyph-name="ring" horiz-adv-x="380" 
d="M138 568q0 -29 13.5 -48t38.5 -19t38.5 19t13.5 48q0 28 -13.5 47t-38.5 19t-38.5 -19t-13.5 -47zM81 568q0 20 7.5 38.5t22 33t34.5 23.5t45 9t45 -9t34.5 -23.5t22 -33t7.5 -38.5t-7.5 -39t-22 -33.5t-34.5 -23.5t-45 -9t-45 9t-34.5 23.5t-22 33.5t-7.5 39z" />
    <glyph glyph-name="hungarumlaut" horiz-adv-x="380" 
d="M280 644q5 11 11.5 18t15.5 7q10 0 18 -4.5t17 -10.5q12 -9 18 -16.5t6 -16.5t-5.5 -18t-16.5 -20l-132 -143q-19 -1 -22 16zM105 644q5 11 11.5 18t15.5 7q10 0 18 -4.5t17 -10.5q12 -9 18 -16.5t6 -16.5t-5.5 -18t-16.5 -20l-132 -143q-19 -1 -22 16z" />
    <glyph glyph-name="ogonek" horiz-adv-x="380" 
d="M258 20q-42 -38 -66 -76t-24 -70q0 -26 16 -42.5t45 -16.5t48 15q10 -3 10 -17q-19 -28 -46 -40t-56 -12q-26 0 -44 8t-28.5 20t-15 27.5t-4.5 30.5q0 39 30.5 83t89.5 90h45z" />
    <glyph glyph-name="caron" horiz-adv-x="380" 
d="M59 675q3 17 20 15l83 -103q11 -14 17 -21.5t10 -8.5q7 1 27 26l86 105q17 0 20 -17l-108 -203q-5 -9 -11.5 -11.5t-10.5 -2.5q-5 0 -11 3t-11 11z" />
    <glyph glyph-name="Lslash" horiz-adv-x="566" 
d="M241 366l112 73q11 -5 17.5 -15.5t3.5 -21.5l-133 -87v-150q0 -38 3 -64t14 -39q4 -5 10.5 -9t18 -7t30.5 -4.5t49 -1.5q42 0 67.5 2.5t43.5 13t31.5 32t30.5 60.5q8 4 17.5 2t13.5 -8q-3 -16 -8.5 -36.5t-11.5 -41.5t-12 -39t-10 -28q-16 1 -39.5 1.5t-54.5 0.5
q-30 1 -67 1h-79h-104q-38 0 -74.5 -0.5t-68.5 -2.5q-6 3 -7.5 14t5.5 15l30 5q18 2 29 5.5t17 14.5t8 32.5t2 60.5v97l-86 -56q-11 2 -16.5 15.5t-1.5 24.5l104 67v224q0 39 -2 60.5t-8 32.5t-17 14.5t-29 6.5l-28 4q-5 4 -5 15t7 14q38 -2 72 -2.5t69 -0.5q67 0 133 3
q7 -3 7.5 -14t-5.5 -15l-22 -4q-18 -3 -29 -6.5t-17 -14.5t-8 -32.5t-2 -60.5v-150z" />
    <glyph glyph-name="dotlessi" horiz-adv-x="268" 
d="M193 119q0 -28 1 -44.5t5 -26t11.5 -13.5t20.5 -6l18 -3q5 -5 4.5 -15.5t-6.5 -13.5q-28 2 -54 2.5t-54 0.5q-48 0 -105 -3q-6 3 -6.5 13.5t4.5 15.5l18 3q13 2 20.5 6t11.5 13.5t5 26t1 44.5v147q0 17 -0.5 28t-2.5 19t-7.5 13.5t-14.5 11.5l-12 7q-2 3 -2 11t3 12
q39 11 74 26t56 28q10 -2 14 -8q-2 -25 -2.5 -58t-0.5 -64v-173z" />
    <glyph glyph-name="lslash" horiz-adv-x="275" 
d="M192 327v-208q0 -28 1 -44.5t5 -26t11.5 -13.5t20.5 -6l22 -3q5 -5 4.5 -15.5t-6.5 -13.5q-31 2 -57.5 2.5t-54.5 0.5q-47 0 -108 -3q-6 3 -6.5 13.5t4.5 15.5l21 3q13 2 20.5 6t11.5 13.5t5 26t1 44.5v126l-74 -58q-9 5 -14.5 13.5t-3.5 22.5l92 72v253q0 25 -0.5 40
t-3 24t-8 14t-14.5 11l-11 7q-5 3 -5 12t5 11q29 8 65 22t66 26q10 2 14 -8q-1 -15 -1.5 -33.5t-1 -38t-0.5 -38.5v-35v-185l84 66q11 -2 17 -12.5t3 -22.5z" />
    <glyph glyph-name="minus" 
d="M448 174h-385v63h385v-63z" />
    </font>
</defs>
</svg>
